Loading...
Error

Скачать Дневники Кэрри / The Carrie Diaries (Сезон 01-02)(Мигель Артета, Норман Баккли) [2013-2014, Мелодрама, комедия, WEB-DLRip] [DVO] (ПРИЧУДИКИ) торрент без регистрации

Статистика раздачи
Размер:  14,04 GB   |    Скачан:  162 раза
Сидов:  2  [  0 KB/s  ]  
 
 
 
Автор Сообщение

leon030982

[] 


Дневники Кэрри / The Carrie Diaries





Год выпуска: 2013-2014
Страна: США
Жанр: Мелодрама, комедия
Продолжительность: 26х ~ 00:42:00
Перевод: Любительский (двухголосый закадровый) [ПРИЧУДИКИ]
субтитры: нет

Режиссёр: Мигель Артета, Норман Баккли

В ролях: Анна-София Робб, Адриана ДеМео, Кейт Ноулин, Александра Миллер, Уитни Вэнс, Фрима Аджйеман и др.

Описание: Кэрри Брэдшоу учится в выпускном классе средней школы в начале 1980-х годов. Она сталкивается с первыми вопросами о любви, сексе, дружбе и семье во время учебы в школе и жизни на Манхэттене.


Качество: WEB-DLRip
Формат: AVI
Видео кодек: XviD
Аудио кодек: MP3
Видео: 720x400 (1.80:1), 23.976 fps, XviD MPEG-4 ~1710 kbps avg, 0.26 bit/pixel
Аудио: 48 kHz, MPEG Layer 3, 2 ch, ~128.00 kbps avg
General
Complete name : E:\The Carrie Diaries\The Carrie Diaries S01E01.avi
Format : AVI
Format/Info : Audio Video Interleave
File size : 586 MiB
Duration : 42mn 37s
Overall bit rate : 1 923 Kbps
Writing library : VirtualDub build 34807/release

Video
ID : 0
Format : MPEG-4 Visual
Format profile : Advanced Simple@L5
Format settings, BVOP : 2
Format settings, QPel : No
Format settings, GMC : No warppoints
Format settings, Matrix : Default (H.263)
Muxing mode : Packed bitstream
Codec ID : XVID
Codec ID/Hint : XviD
Duration : 42mn 37s
Bit rate : 1 710 Kbps
Width : 720 pixels
Height : 400 pixels
Display aspect ratio : 16:9
Frame rate : 23.976 fps
Color space : YUV
Chroma subsampling : 4:2:0
Bit depth : 8 bits
Scan type : Progressive
Compression mode : Lossy
Bits/(Pixel*Frame) : 0.248
Stream size : 521 MiB (89%)
Writing library : XviD 1.2.1 (UTC 2008-12-04)

Audio
ID : 1
Format : MPEG Audio
Format version : Version 1
Format profile : Layer 3
Mode : Joint stereo
Mode extension : MS Stereo
Codec ID : 55
Codec ID/Hint : MP3
Duration : 42mn 37s
Bit rate mode : Constant
Bit rate : 128 Kbps
Channel(s) : 2 channels
Sampling rate : 48.0 KHz
Compression mode : Lossy
Stream size : 39.0 MiB (7%)
Alignment : Split accross interleaves
Writing library : LAME3.97
General
Complete name : E:\The Carrie Diaries\The Carrie Diaries S02E13.avi
Format : AVI
Format/Info : Audio Video Interleave
File size : 498 MiB
Duration : 42mn 30s
Overall bit rate : 1 638 Kbps
Writing application : VirtualDubMod 1.5.10.3 | www.virtualdub-fr.org || (build 2550/release)
Writing library : VirtualDubMod build 2550/release

Video
ID : 0
Format : MPEG-4 Visual
Format profile : Advanced Simple@L5
Format settings, BVOP : 1
Format settings, QPel : No
Format settings, GMC : No warppoints
Format settings, Matrix : Default (MPEG)
Codec ID : XVID
Codec ID/Hint : XviD
Duration : 42mn 30s
Bit rate : 1 436 Kbps
Width : 720 pixels
Height : 400 pixels
Display aspect ratio : 16:9
Frame rate : 23.976 fps
Color space : YUV
Chroma subsampling : 4:2:0
Bit depth : 8 bits
Scan type : Progressive
Compression mode : Lossy
Bits/(Pixel*Frame) : 0.208
Stream size : 437 MiB (88%)
Writing library : XviD 1.2.1 (UTC 2008-12-04)

Audio
ID : 1
Format : MPEG Audio
Format version : Version 1
Format profile : Layer 3
Mode : Joint stereo
Mode extension : MS Stereo
Codec ID : 55
Codec ID/Hint : MP3
Duration : 42mn 30s
Bit rate mode : Constant
Bit rate : 128 Kbps
Channel(s) : 2 channels
Sampling rate : 48.0 KHz
Compression mode : Lossy
Stream size : 38.9 MiB (8%)
Alignment : Aligned on interleaves




Скачать Дневники.Кэрри.The.Carrie.Diaries.(Сезон.01-02)(Мигель.Артета.Норман.Баккли).[2013-2014.Мелодрама.комедия.WEB-DLRip].[DVO].(ПРИЧУДИКИ).torrent без регистрации
Золото ЗОЛОТАЯ РАЗДАЧА! СКАЧАННОЕ НЕ ЗАСЧИТЫВАЕТСЯ! Золото
Дата: Зарегистрирован   [ Тип: внешний ] Как тут cкачать?
MAGNET ссылка
MAGNET ссылка


Скачать .torrent

73 KB

Статус: проверено DHT
Скачан: торрент - 162 раз, раздача полностью - 4 раз
Размер: 14,04 GB
Оценка:  5 (Голосов: 2)
Поблагодарили: 2
Поделиться ссылкой на эту раздачу с друзьями:
В контактеFacebookОдноклассникиTwitterLivejournalМой МирLiveinternet
 

 

leon030982

[] 

9-я серия
 

leon030982

[] 

Обновлено
 

leon030982

[] 

11-я серия
 

leon030982

[] 

обновлено
 

leon030982

[] 

обновлено az
 
Показать сообщения:    


Вы не можете начинать темы
Вы не можете отвечать на сообщения
Вы не можете редактировать свои сообщения
Вы не можете удалять свои сообщения
Вы не можете голосовать в опросах
Вы не можете прикреплять файлы к сообщениям
Вы можете скачивать файлы