Loading...
Error

Скачать Четвёртый вид / The Fourth Kind (Олатунде Осунсанми) [2009 г., ужасы, фантастика, триллер, детектив, BDRip-AVC] [DUB] торрент без регистрации

 
Статистика раздачи
Размер:  2,18 GB   |    Скачан:  132 раза
Сидов:  1  [  0 KB/s  ]  
 
Автор Сообщение

durik

[] 

Четвёртый вид / The Fourth Kind

Название: Четвёртый вид
Оригинальное название: The Fourth Kind
Год выхода: 2009
Жанр: ужасы, фантастика, триллер, детектив
Режиссер: Олатунде Осунсанми
В ролях: Милла Йовович, Уилл Пэттон, Хаким Кае-Казим, Кори Джонсон, Энцо Чиленти, Элиас Котеас, Эрик Лорен, Мия МакКенна-Брюс, Рафаэль Коулмэн, Дафна Александр

О фильме:
На территории Аляски происходят необъяснимые исчезновения людей. Несмотря на все усилия ФБР, расследования зашли в тупик, и тайна, по-прежнему, не раскрыта. Психиатр Эбигейл Тайлер начинает записывать на видео беседы со своими пациентами и обнаруживает нечто очень страшное и пугающее…



Страна: США, Великобритания
Студия: Universal Pictures, Gold Circle Films, Chambara Pictures
Продолжительность: 01:38:00
Перевод: Полное дублирование (лицензия)

Кодек: AVC
Формат: MKV
Качество: BDRip-AVC
Видео: 1024x432, 2732 kbps, 23,976 fps, 0,258 Bits/(Pixel*Frame)
Звук: AC3, 48 kHz, 6 ch, 448 kbps
Субтитры: Русские, английские

Релиз от: и

Автор рипа: Bathory
General
Unique ID : 238302979591477836170086006205547913707 (0xB3477C03288A4A0AB7435C87B211A1EB)
Complete name : G:The.Fourth.Kind.2009.BDRip_AVC_by_Bathory.mkv
Format : Matroska
Format version : Version 4 / Version 2
File size : 2.18 GiB
Duration : 1h 38mn
Overall bit rate : 3 181 Kbps
Encoded date : UTC 2013-11-13 03:37:23
Writing application : mkvmerge v6.5.0 ('Isn't she lovely') built on Oct 20 2013 12:50:05
Writing library : libebml v1.3.0 + libmatroska v1.4.1

Video
ID : 1
Format : AVC
Format/Info : Advanced Video Codec
Format profile : High@L4.1
Format settings, CABAC : Yes
Format settings, ReFrames : 8 frames
Codec ID : V_MPEG4/ISO/AVC
Duration : 1h 38mn
Bit rate : 2 732 Kbps
Width : 1 024 pixels
Height : 432 pixels
Display aspect ratio : 2.40:1
Frame rate mode : Constant
Frame rate : 23.976 fps
Color space : YUV
Chroma subsampling : 4:2:0
Bit depth : 8 bits
Scan type : Progressive
Bits/(Pixel*Frame) : 0.258
Stream size : 1.83 GiB (84%)
Writing library : x264 core 133 r2334 a3ac64b
Encoding settings : cabac=1 / ref=8 / deblock=1:-2:-2 / analyse=0x3:0x133 / me=umh / subme=11 / psy=1 / psy_rd=1.10:0.10 / mixed_ref=1 / me_range=24 / chroma_me=1 / trellis=2 / 8x8dct=1 / cqm=0 / deadzone=21,11 / fast_pskip=0 / chroma_qp_offset=-3 / threads=6 / lookahead_threads=1 / sliced_threads=0 / nr=10 / decimate=1 / interlaced=0 / bluray_compat=0 / constrained_intra=0 / bframes=10 / b_pyramid=2 / b_adapt=2 / b_bias=0 / direct=3 / weightb=1 / open_gop=0 / weightp=2 / keyint=240 / keyint_min=23 / scenecut=40 / intra_refresh=0 / rc_lookahead=60 / rc=2pass / mbtree=1 / bitrate=2732 / ratetol=1.0 / qcomp=0.60 / qpmin=0 / qpmax=69 / qpstep=4 / cplxblur=20.0 / qblur=0.5 / vbv_maxrate=62500 / vbv_bufsize=78125 / nal_hrd=none / ip_ratio=1.40 / aq=1:1.00
Default : Yes
Forced : No

Audio
ID : 2
Format : AC-3
Format/Info : Audio Coding 3
Mode extension : CM (complete main)
Format settings, Endianness : Big
Codec ID : A_AC3
Duration : 1h 38mn
Bit rate mode : Constant
Bit rate : 448 Kbps
Channel count : 6 channels
Channel positions : Front: L C R, Side: L R, LFE
Sampling rate : 48.0 KHz
Bit depth : 16 bits
Compression mode : Lossy
Stream size : 314 MiB (14%)
Language : Russian
Default : Yes
Forced : No

Text #1
ID : 3
Format : UTF-8
Codec ID : S_TEXT/UTF8
Codec ID/Info : UTF-8 Plain Text
Language : Russian
Default : No
Forced : No

Text #2
ID : 4
Format : UTF-8
Codec ID : S_TEXT/UTF8
Codec ID/Info : UTF-8 Plain Text
Language : English
Default : No
Forced : No



Скачать Четвёртый.вид.The.Fourth.Kind.(Олатунде.Осунсанми).[2009.г.ужасы.фантастика.триллер.детектив.BDRip-AVC].[DUB].torrent без регистрации
Золото ЗОЛОТАЯ РАЗДАЧА! СКАЧАННОЕ НЕ ЗАСЧИТЫВАЕТСЯ! Золото
Дата: Зарегистрирован   [ Тип: внутренний ] Как тут cкачать?
MAGNET ссылка
MAGNET ссылка


Скачать .torrent

11 KB

Статус: проверено DHT
Скачан: торрент - 132 раз, раздача полностью - 72 раз
Размер: 2,18 GB
Оценка:  - (Голосов: 0)
Поблагодарили: 2
Поделиться ссылкой на эту раздачу с друзьями:
В контактеFacebookОдноклассникиTwitterLivejournalМой МирLiveinternet
 

 
Показать сообщения:    


Вы не можете начинать темы
Вы не можете отвечать на сообщения
Вы не можете редактировать свои сообщения
Вы не можете удалять свои сообщения
Вы не можете голосовать в опросах
Вы не можете прикреплять файлы к сообщениям
Вы можете скачивать файлы