Loading...
Error

/ The Right Stuff ( / Philip Kaufman) [1983, , , , , BDRip] [DVO]

 
1,46 GB   |    :  100
1  [  0 KB/s  ]  
 

leon030982

[] 

/ The Right Stuff

: 1983
: / The Ladd Company
: , , ,
: 03:12:44
: ( )

C:
:
/ Philip Kaufman
:
(Chuck Yeager), (Alan Shepard), (John Glenn), (Gordon Cooper), (Gus Grissom), (Glennis Yeager), (Pancho Barnes), (Betty Grissom), (Trudy Cooper), (Deke Slayton)
:
1953 . , . : 1947 1963 , , .


: BDRip [The.Right.Stuff.1983.BDRemux.HDTracker]
: AVI
: 624x352 (1.77:1), 23.976 fps, XviD build 73 ~950 kbps avg, 0.18 bit/pixel
: 48 kHz, MPEG Layer 3, 2 ch, ~128.00 kbps avg

:

General
Complete name : D:\Parni_chto_nado_1983_BDRip_by_Dalemake.avi
Format : AVI
Format/Info : Audio Video Interleave
File size : 1.46 GiB
Duration : 3h 12mn
Overall bit rate : 1 088 Kbps
Writing application : VirtualDubMod 1.5.10.3 | www.virtualdub-fr.org || (build 2550/release)
Writing library : VirtualDubMod build 2550/release
Video
ID : 0
Format : MPEG-4 Visual
Format profile : Advanced Simple@L5
Format settings, BVOP : 1
Format settings, QPel : No
Format settings, GMC : No warppoints
Format settings, Matrix : Custom
Codec ID : XVID
Codec ID/Hint : XviD
Duration : 3h 12mn
Bit rate : 950 Kbps
Width : 624 pixels
Height : 352 pixels
Display aspect ratio : 16:9
Frame rate : 23.976 fps
Color space : YUV
Chroma subsampling : 4:2:0
Bit depth : 8 bits
Scan type : Progressive
Compression mode : Lossy
Bits/(Pixel*Frame) : 0.180
Stream size : 1.28 GiB (87%)
Writing library : XviD 73
Audio
ID : 1
Format : MPEG Audio
Format version : Version 1
Format profile : Layer 3
Codec ID : 55
Codec ID/Hint : MP3
Duration : 3h 12mn
Bit rate mode : Constant
Bit rate : 128 Kbps
Channel(s) : 2 channels
Sampling rate : 48.0 KHz
Compression mode : Lossy
Stream size : 176 MiB (12%)
Alignment : Aligned on interleaves
Interleave, duration : 42 ms (1.00 video frame)
Interleave, preload duration : 504 ms
Writing library : LAME3.99r
Encoding settings : -m s -V 4 -q 2 -lowpass 17 -b 128



...The.Right.Stuff.(..Philip.Kaufman).[1983.....BDRip].[DVO].torrent
  ! ! 
:   [ : ] c?
MAGNET
MAGNET


.torrent

15 KB

: DHT
: - 100 , - 5
: 1,46 GB
5 (: 1)
: 1
:
 FacebookTwitterLivejournal Liveinternet
 

 
: