Loading...
Error

Скачать Сердце дракона / Heart of the Dragon (Саммо Хунг, Фрут Чан) [1985, комедийный боевик, триллер, драма, криминал, BDRip] [MVO]+[AVO]+[Оригинал]+[Sub] торрент без регистрации

 
Статистика раздачи
Размер:  1,69 GB   |    Скачан:  111 раз
Сидов:  1  [  0 KB/s  ]  
 
Автор Сообщение

Marsianka

[] 

Название: Сердце дракона
Оригинальное название: Heart of the Dragon
Год выпуска: 1985
Жанр: комедийный боевик, триллер, драма, криминал
Выпущено: Гонконг, Bo Ho Film Company Ltd., Golden Harvest Compan
Режиссер: Саммо Хунг, Фрут Чан
В ролях: Джеки Чан, Саммо Хунг, Эмили Чу, Хой Ман, Чинг-Йинг Лам, Ланг Чан, Юэнь Ва, Кар Лок Чин, Кори Юэнь, Мелвин Вонг

О фильме: Молодой полицейский Тед, поступивший в спецподразделение полиции, получает первое задание. Во время расследования Тед узнаёт, что его брат Денни, непутёвый толстяк и недотёпа, оказался замешанным в торговле краденным. Спасти брата, единственного родного человека, это теперь первое задание Теда...



Качество: BDRip
Размер: 1.69 ГБ
Продолжительность: 01:38:40

Видео: XviD, 1900 Kбит/с, 720х400
Аудио 1: русский, 48 kHz, AC3, 2 ch, 192 kbps avg, [Профессиональный многоголосый]
Аудио 2: русский, 48 kHz, AC3, 2 ch, 160 kbps avg, [Авторский, Юрий Живов]

Внешние файлы
Аудио: китайский, 48 kHz, AC3, 2 ch, 192 kbps avg, [Оригинал]
Субтитры: русские (на места без перевода)
Исходник: ChuckNorriss (HDTracker)

Сравнение с исходником
Общее
Полное имя : E:VideoSerdce.drakona.1985.XviD.BDRipSerdce.drakona.1985.Original.chi.ac3
Формат : AC-3
Формат/Информация : Audio Coding 3
Размер файла : 136 Мбайт
Продолжительность : 1 ч. 38 м.
Режим общего битрейта : Постоянный
Общий поток : 192 Кбит/сек

Аудио
Формат : AC-3
Формат/Информация : Audio Coding 3
Расширение режима : CM (complete main)
Параметр Endianness формата : Big
Продолжительность : 1 ч. 38 м.
Вид битрейта : Постоянный
Битрейт : 192 Кбит/сек
Каналы : 2 канала
Расположение каналов : Front: L R
Частота : 48,0 КГц
Битовая глубина : 16 бит
Метод сжатия : С потерями
Размер потока : 136 Мбайт (100%)

Общее
Полное имя : E:VideoSerdce.drakona.1985.XviD.BDRipSerdce.drakona.1985.rus.srt
Размер файла : 4,99 Кбайт

Общее
Полное имя : E:VideoSerdce.drakona.1985.XviD.BDRipSerdce.drakona.1985.XviD.BDRip.avi
Формат : AVI
Формат/Информация : Audio Video Interleave
Размер файла : 1,56 Гбайт
Продолжительность : 1 ч. 38 м.
Общий поток : 2263 Кбит/сек
Программа кодирования : VirtualDubMod 1.5.10.2 (build 2540/release)
Библиотека кодирования : VirtualDubMod build 2540/release

Видео
Идентификатор : 0
Формат : MPEG-4 Visual
Профиль формата : Advanced Simple@L5
Параметр BVOP формата : 1
Параметр QPel формата : Нет
Параметр GMC формата : Без точки перехода
Параметр матрицы формата : Default (H.263)
Режим смешивания : Сжатый битовый поток
Идентификатор кодека : XVID
Идентификатор кодека/Подсказка : XviD
Продолжительность : 1 ч. 38 м.
Битрейт : 1900 Кбит/сек
Ширина : 720 пикселей
Высота : 400 пикселей
Соотношение сторон : 16:9
Частота кадров : 23,976 кадра/сек
Цветовое пространство : YUV
Субдискретизация насыщенности : 4:2:0
Битовая глубина : 8 бит
Тип развёртки : Прогрессивная
Метод сжатия : С потерями
Бит/(Пиксели*Кадры) : 0.275
Размер потока : 1,31 Гбайт (84%)
Библиотека кодирования : XviD 1.2.1 (UTC 2008-12-04)

Аудио #1
Идентификатор : 1
Формат : AC-3
Формат/Информация : Audio Coding 3
Расширение режима : CM (complete main)
Параметр Endianness формата : Big
Идентификатор кодека : 2000
Продолжительность : 1 ч. 37 м.
Вид битрейта : Постоянный
Битрейт : 192 Кбит/сек
Каналы : 2 канала
Расположение каналов : Front: L R
Частота : 48,0 КГц
Битовая глубина : 16 бит
Метод сжатия : С потерями
Размер потока : 133 Мбайт (8%)
Выравнивание : Разделение по промежуткам
Продолжительность промежутка : 42 мс. (1,02 видеокадр)
Время предзагрузки промежутка : 500 мс.

Аудио #2
Идентификатор : 2
Формат : AC-3
Формат/Информация : Audio Coding 3
Расширение режима : CM (complete main)
Параметр Endianness формата : Big
Идентификатор кодека : 2000
Продолжительность : 1 ч. 38 м.
Вид битрейта : Постоянный
Битрейт : 160 Кбит/сек
Каналы : 2 канала
Расположение каналов : Front: L R
Частота : 48,0 КГц
Битовая глубина : 16 бит
Метод сжатия : С потерями
Размер потока : 113 Мбайт (7%)
Выравнивание : Разделение по промежуткам
Продолжительность промежутка : 42 мс. (1,00 видеокадр)
Время предзагрузки промежутка : 500 мс.



Скачать Сердце.дракона.Heart.of.the.Dragon.(Саммо.Хунг.Фрут.Чан).[1985.комедийный.боевик.триллер.драма.криминал.BDRip].[MVO]+[AVO]+[Оригинал]+[Sub].torrent без регистрации
Золото ЗОЛОТАЯ РАЗДАЧА! СКАЧАННОЕ НЕ ЗАСЧИТЫВАЕТСЯ! Золото
Дата: Зарегистрирован   [ Тип: внутренний ] Как тут cкачать?
MAGNET ссылка
MAGNET ссылка


Скачать .torrent

18 KB

Статус: проверено DHT
Скачан: торрент - 111 раз, раздача полностью - 6 раз
Размер: 1,69 GB
Оценка:  - (Голосов: 0)
Поблагодарили: 1
Поделиться ссылкой на эту раздачу с друзьями:
В контактеFacebookОдноклассникиTwitterLivejournalМой МирLiveinternet
 

 
Показать сообщения:    


Вы не можете начинать темы
Вы не можете отвечать на сообщения
Вы не можете редактировать свои сообщения
Вы не можете удалять свои сообщения
Вы не можете голосовать в опросах
Вы не можете прикреплять файлы к сообщениям
Вы можете скачивать файлы