Loading...
Error

Скачать Взвод чудовищ / The Monster Squad (Фред Деккер) [1987, ужасы, фэнтези, боевик, комедия, BDRip] [AVC] [AVO] торрент без регистрации

 
Статистика раздачи
Размер:  2,03 GB   |    Скачан:  109 раз
Сидов:  1  [  0 KB/s  ]  
 
Автор Сообщение

Marsianka

[] 

Информация о фильме
Название: Взвод чудовищ
Оригинальное название: The Monster Squad
Год выхода: 1987
Жанр: ужасы, фэнтези, боевик, комедия
Режиссер: Фред Деккер
В ролях: Андре Гауэр, Робби Кайджер, Стефен Махт, Дункан Регер, Том Нунен, Брент Шалем, Райан Ламберт, Эшли Бэнк, Майкл Фаустино, Мэри Эллен Трейнор, Леонардо Чимино, Джон Грайз, Стэн Шоу, Лиза Фуллер, Джейсон Херви, Адам Карл, Карл Тибо, Том Вудрафф мл., Майкл Рид МакКей, Джек Гвиллим, Дэвид Провэл, Дэрил Андерсон, Роберт Лессер

О фильме:
Юные друзья состоят членами клуба, посвященного монстрам. Им, можно сказать, крупно повезло, так как они столкнулись с монстрами в реальной жизни. В их город прибыл сам граф Дракула с чудовищем Франкенштейна, Мумией, Человеком-оборотнем и прочими милашками на поиски амулета, жизненно необходимого для его, графа, существования
Сатурн, 2008 год
Победитель (1):
Лучшее DVD-издание классического фильма


Сатурн, 1988 год
Номинации (4):
Лучший молодой актер/актриса (Андре Гауэр)
Лучший актер второго плана (Дункан Регер)
Лучшие костюмы
Лучшая музыка
Рейтинг PG-13 - Детям до 13 лет просмотр не желателен

Настоятельное предупреждение родителям. Данный рейтинг получают фильмы, содержание которых может считаться неприемлемым для детей, не достигших 13-летнего возраста.

В фильме отсутствуют сцены с насилием и «обнажёнкой», но уже могут присутствовать неконкретизированные эпизоды с наркотиками и слова, связанные с сексом.
Огромная благодарность Media-Art-Club за созданный постер к раздаче!
Полное имя : G:Готово!!!Vzvod.chudovisch.1987.x264.BDRip.AVC-MediaClub.mkv
Формат : Matroska
Версия формата : Version 2
Размер файла : 2,03 Гбайт
Продолжительность : 1 ч. 22 м.
Общий поток : 3539 Кбит/сек
Название фильма : Vzvod chudovisch (1987) BDRip AVC=MediaClub=-[Викс]-
Дата кодирования : UTC 2013-11-11 15:15:14
Программа кодирования : mkvmerge v5.8.0 ('No Sleep / Pillow') built on Sep 2 2012 15:37:04
Библиотека кодирования : libebml v1.2.3 + libmatroska v1.3.0

Видео
Идентификатор : 1
Формат : AVC
Формат/Информация : Advanced Video Codec
Профиль формата : High@L4.1
Параметр CABAC формата : Да
Параметр ReFrames формата : 8 кадров
Идентификатор кодека : V_MPEG4/ISO/AVC
Продолжительность : 1 ч. 22 м.
Битрейт : 2900 Кбит/сек
Ширина : 1024 пикселя
Высота : 436 пикселей
Соотношение сторон : 2,35:1
Режим частоты кадров : Постоянный
Частота кадров : 23,976 кадра/сек
Цветовое пространство : YUV
Субдискретизация насыщенности : 4:2:0
Битовая глубина : 8 бит
Тип развёртки : Прогрессивная
Бит/(Пиксели*Кадры) : 0.271
Размер потока : 1,62 Гбайт (80%)
Библиотека кодирования : x264 core 133 r2334 a3ac64b
Настройки программы : cabac=1 / ref=8 / deblock=1:-2:-2 / analyse=0x3:0x113 / me=umh / subme=11 / psy=1 / psy_rd=1.00:0.00 / mixed_ref=1 / me_range=48 / chroma_me=1 / trellis=2 / 8x8dct=1 / cqm=0 / deadzone=21,11 / fast_pskip=0 / chroma_qp_offset=-2 / threads=6 / lookahead_threads=1 / sliced_threads=0 / nr=0 / decimate=0 / interlaced=0 / bluray_compat=0 / constrained_intra=0 / bframes=8 / b_pyramid=2 / b_adapt=2 / b_bias=0 / direct=3 / weightb=1 / open_gop=0 / weightp=2 / keyint=240 / keyint_min=23 / scenecut=40 / intra_refresh=0 / rc_lookahead=40 / rc=2pass / mbtree=0 / bitrate=2900 / ratetol=1.0 / qcomp=0.60 / qpmin=0 / qpmax=69 / qpstep=4 / cplxblur=20.0 / qblur=0.5 / vbv_maxrate=50000 / vbv_bufsize=52500 / nal_hrd=none / ip_ratio=1.40 / pb_ratio=1.30 / aq=1:0.80
Язык : English
Default : Да
Forced : Нет

Аудио #1
Идентификатор : 2
Формат : AC-3
Формат/Информация : Audio Coding 3
Расширение режима : CM (complete main)
Параметр Endianness формата : Big
Идентификатор кодека : A_AC3
Продолжительность : 1 ч. 22 м.
Вид битрейта : Постоянный
Битрейт : 192 Кбит/сек
Каналы : 2 канала
Расположение каналов : Front: L R
Частота : 48,0 КГц
Битовая глубина : 16 бит
Метод сжатия : С потерями
Размер потока : 113 Мбайт (5%)
Заголовок : AP (Shtejn)
Язык : Russian
Default : Да
Forced : Нет

Аудио #2
Идентификатор : 3
Формат : AC-3
Формат/Информация : Audio Coding 3
Расширение режима : CM (complete main)
Параметр Endianness формата : Big
Идентификатор кодека : A_AC3
Продолжительность : 1 ч. 22 м.
Вид битрейта : Постоянный
Битрейт : 448 Кбит/сек
Каналы : 6 каналов
Расположение каналов : Front: L C R, Side: L R, LFE
Частота : 48,0 КГц
Битовая глубина : 16 бит
Метод сжатия : С потерями
Размер потока : 263 Мбайт (13%)
Язык : English
Default : Нет
Forced : Нет

Меню
00:00:00.000 : :Chapter 01
00:06:25.802 : :Chapter 02
00:10:57.531 : :Chapter 03
00:14:56.186 : :Chapter 04
00:21:31.248 : :Chapter 05
00:26:43.935 : :Chapter 06
00:30:18.566 : :Chapter 07
00:34:32.779 : :Chapter 08
00:39:32.119 : :Chapter 09
00:44:25.287 : :Chapter 10
00:49:41.478 : :Chapter 11
00:57:56.556 : :Chapter 12
01:01:39.570 : :Chapter 13
01:04:13.683 : :Chapter 14
01:08:50.584 : :Chapter 15
01:12:21.086 : :Chapter 16
01:22:10.508 : :Chapter 17
x264 [info]: frame I:1004 Avg QP:15.26 size: 72948
x264 [info]: frame P:23535 Avg QP:18.20 size: 28274
x264 [info]: frame B:93680 Avg QP:20.28 size: 11178

Страна: США
Студия: Home Box Office (HBO), Keith Barish Productions, TAFT Entertainment Pictures
Продолжительность: 01:22:10
Перевод: Авторский одноголосый (Владимир Штейн)

Файл
Кодек: x264
Качество: BDRip (AVC)
Видео: MPEG-4 AVC, 2900 Кбит/с, 1024x436, 23.976 кадр/с
Звук:
Аудио #1: Русский (AC3, 2 ch, 192 Кбит/с) / Авторский одноголосый (Владимир Штейн)
Аудио #2: Английский (AC3, 6 ch, 448 Кбит/с)

Семпл Релиз от: Рип, работа с аудио - Викс



Скачать Взвод.чудовищ.The.Monster.Squad.(Фред.Деккер).[1987.ужасы.фэнтези.боевик.комедия.BDRip].[AVC].[AVO].torrent без регистрации
Золото ЗОЛОТАЯ РАЗДАЧА! СКАЧАННОЕ НЕ ЗАСЧИТЫВАЕТСЯ! Золото
Дата: Зарегистрирован   [ Тип: внутренний ] Как тут cкачать?
MAGNET ссылка
MAGNET ссылка


Скачать .torrent

12 KB

Статус: проверено DHT
Скачан: торрент - 109 раз, раздача полностью - 15 раз
Размер: 2,03 GB
Оценка:  - (Голосов: 0)
Поблагодарили: 2
Поделиться ссылкой на эту раздачу с друзьями:
В контактеFacebookОдноклассникиTwitterLivejournalМой МирLiveinternet
 

 
Показать сообщения:    


Вы не можете начинать темы
Вы не можете отвечать на сообщения
Вы не можете редактировать свои сообщения
Вы не можете удалять свои сообщения
Вы не можете голосовать в опросах
Вы не можете прикреплять файлы к сообщениям
Вы можете скачивать файлы