Loading...
Error

Скачать Сломанные цветы / Broken Flowers (Джим Джармуш) [2005, драма, комедия, детектив, ВDRip] [DVO] торрент без регистрации

 
Статистика раздачи
Размер:  744 MB   |    Скачан:  106 раз
Сидов:  2  [  0 KB/s  ]  
 
Автор Сообщение

Marsianka

[] 

Страна: США, Франция
Производство: Bac Films, Five Roses, Focus Features
Жанр: драма, комедия, детектив
Год выпуска: 2005
Продолжительность: 01:41:22

Перевод: Профессиональный (Двухголосый, закадровый)
Оригинальная аудиодорожка: нет
Cубтитры: нет

Режиссер: Джим Джармуш / Jim Jarmusch

В ролях:
Билл Мюррэй, Джеффри Райт, Шэрон Стоун, Фрэнсис Конрой, Джессика Лэнг, Тильда Суинтон, Жюли Дельпи, Мар Уэббер, Хлои Севиньи...

Описание:
Утро для престарелого «Дон Жуана» Дона Джонстона начинается с того, что от него уходит очередная подружка Шерри, потеряв веру в то, что с этим человеком можно создать семью. Оставшись в одиночестве, разбирая почту, Дон обнаруживает розовый конверт. В письме неизвестная сообщает, что двадцать лет назад, расставшись с Доном, обнаружила, что беременна. Не обращаясь за помощью к Дону, вырастила сына, которому уже 19 лет. И мальчик, которому мама не сообщила, кто его отец, решил самостоятельно увидеть папу и ушёл из дома. Дама писала, что ничего не хочет от Дона, просто предупреждает, что встреча отца с сыном вполне возможна. Показав письмо другу Уинстону любителю детективов Дон получил от того совет: вспомнить всех своих подружек, которые у него были 20 лет назад и посетить их, выяснив, какая из них родила ему сына


Исходник: BDRemux 1080p
Тип релиза: BDRip
Контейнер: AVI

Видео: 688x384 (16:9), 25 fps, XviD ~ 898 kbps avg, 0.136 bit/pixel
Аудио: 48 kHz, MP3 2.0, 128 kbps

Раздача от:

Общее
Полное имя : Slomannye.cvety.2005.BDRip-745_[New-team]_by_AVP_Studio.avi
Формат : AVI
Формат/Информация : Audio Video Interleave
Размер файла : 744 Мбайт
Продолжительность : 1 ч. 41 м.
Общий поток : 1036 Кбит/сек
Программа кодирования : VirtualDubModRus 1.5.10.2 (build 2542/release)
Библиотека кодирования : VirtualDubMod build 2542/release

Видео
Идентификатор : 0
Формат : MPEG-4 Visual
Профиль формата : Advanced Simple@L5
Параметр BVOP формата : 1
Параметр QPel формата : Нет
Параметр GMC формата : Без точки перехода
Параметр матрицы формата : Выборочная
Идентификатор кодека : XVID
Идентификатор кодека/Подсказка : XviD
Продолжительность : 1 ч. 41 м.
Битрейт : 898 Кбит/сек
Ширина : 688 пикселей
Высота : 384 пикселя
Соотношение сторон : 16:9
Частота кадров : 25,000 кадров/сек
Цветовое пространство : YUV
Субдискретизация насыщенности : 4:2:0
Битовая глубина : 8 бит
Тип развёртки : Прогрессивная
Метод сжатия : С потерями
Бит/(Пиксели*Кадры) : 0.136
Размер потока : 651 Мбайт (87%)
Библиотека кодирования : XviD 73

Аудио
Идентификатор : 1
Формат : MPEG Audio
Версия формата : Version 1
Профиль формата : Layer 3
Идентификатор кодека : 55
Идентификатор кодека/Подсказка : MP3
Продолжительность : 1 ч. 41 м.
Вид битрейта : Постоянный
Битрейт : 128 Кбит/сек
Каналы : 2 канала
Частота : 48,0 КГц
Метод сжатия : С потерями
Размер потока : 92,8 Мбайт (12%)
Выравнивание : Соединение по промежуткам
Продолжительность промежутка : 40 мс. (1,00 видеокадр)
Время предзагрузки промежутка : 504 мс.
Библиотека кодирования : LAME3.99r
Настройки программы : -m s -V 4 -q 2 -lowpass 17 -b 128

Изначально проект Джима Джармуша назывался «Мёртвые цветы» (Dead Flowers).
На сценарий фильма у Джима Джармуша ушло две с половиной недели.
Роль Дона Джонстона Джим Джармуш написал специально для Билла Мюррея, поклонником которого он является. Предварительно он рассчитывал задействовать Билла в другом фильме, но изменил свои планы.
Джазовая композиция «Yedermo Sew», непрерывно сопровождающая Дона Джонстона во время его одиссеи, представляет собой минорную версию композиции «Song For My Father» Хораса Сильвера.
В конце фильма мимо Дона проезжает автомобиль, из которого его внимательно рассматривает молодой парень. Парня играет сын Билла Мюррея Гомер.



Скачать Сломанные.цветы.Broken.Flowers.(Джим.Джармуш).[2005.драма.комедия.детектив.ВDRip].[DVO].torrent без регистрации
Золото ЗОЛОТАЯ РАЗДАЧА! СКАЧАННОЕ НЕ ЗАСЧИТЫВАЕТСЯ! Золото
Дата: Зарегистрирован   [ Тип: внутренний ] Как тут cкачать?
MAGNET ссылка
MAGNET ссылка


Скачать .torrent

15 KB

Статус: проверено DHT
Скачан: торрент - 106 раз, раздача полностью - 77 раз
Размер: 744 MB
Оценка:  5 (Голосов: 1)
Поблагодарили: 2
Поделиться ссылкой на эту раздачу с друзьями:
В контактеFacebookОдноклассникиTwitterLivejournalМой МирLiveinternet
 

 
Показать сообщения:    


Вы не можете начинать темы
Вы не можете отвечать на сообщения
Вы не можете редактировать свои сообщения
Вы не можете удалять свои сообщения
Вы не можете голосовать в опросах
Вы не можете прикреплять файлы к сообщениям
Вы можете скачивать файлы