Loading...
Error

Скачать Не те парни / The Wrong Mans (сезон 01) (Джим Филд Смит) [2013, комедия, HDTVRip] [720p] [Sub] торрент без регистрации

 
Статистика раздачи
Размер:  2,65 GB   |    Скачан:  118 раз
Сидов:  1  [  0 KB/s  ]  
 
Автор Сообщение

МихаНЕзатор

[] 

Не те парни

The Wrong Mans


Год выпуска: 2013
Страна: Великобритания
Жанр: комедия
Продолжительность: 00:28:57

Перевод: Субтитры
Субтитры: русские (SemiIsland), английские

Режиссёр: Джим Филд Смит / Jim Field Smith

В ролях: Мэтью Бэйтон / Mathew Baynton, Джеймс Корден / James Corden, Том Базден / Tom Basden, Дункан Поу / Duncan Pow, Сара Солмани / Sarah Solemani и др.

Описание: Новый британский сериал от BBC рассказывает о двух офисных работниках Сэме Пинкетте и Филе Борне, чья жизнь переворачивается вверх ногами после случайного звонка, адресованного не им. Однажды утром Сэм стал свидетелем автомобильной аварии и, уходя после всех формальностей на работу, нашел чей-то телефон на дороге. Уже достаточно потрясенный увиденным событием, и сам несколько разбитый Сэм, слушает голос в трубке: "Если к пяти часам тебя здесь не будет, мы убьем твою жену". Сначала он решает как можно быстрее выбраться хотя бы из этой неприятной ситуации, но вдохновленный своим коллегой Филом, берется спасать "жену". Так начинается хаос, в центре которого крутятся разные подозрительные личности и даже тайный агент. Сэм и Фил должны уворачиваться от пуль и уходить от взрывов, чтобы спасти не только себя, но и своих близких... (с)



Качество: HDTVRip 720p
Формат: MKV
Видео: AVC, 1280 x 720, 25 fps, 1973 kbps, 0.086 b/p
Аудио: AC3, 48 kHz, 2 ch, 192 kbps

Все раздачи сериала

1. Не те парни / Wrong Mans
2. Плохие парни / Bad Mans
3. Мертвые парни / Dead Mans
4. Свои парни / Inside Mans
5. Парни в розыске / Wanted Mans
6. Парни в бегах / Running Mans

Общее
Уникальный идентификатор : 312522598348781151088789899366542165663 (0xEB1DA9BD5DF8A0BF73115996D6CD469F)
Полное имя : C:...The Wrong Mans - 01x01.mkv
Формат : Matroska
Версия формата : Version 2
Размер файла : 458 Мбайт
Продолжительность : 28 м.
Общий поток : 2209 Кбит/сек
Программа кодирования : Larry Sanders
Библиотека кодирования : Larry Sanders

Видео
Идентификатор : 1
Формат : AVC
Формат/Информация : Advanced Video Codec
Профиль формата : High@L4.1
Параметр CABAC формата : Да
Параметр ReFrames формата : 5 кадров
Идентификатор кодека : V_MPEG4/ISO/AVC
Продолжительность : 28 м.
Битрейт : 1973 Кбит/сек
Ширина : 1280 пикселей
Высота : 720 пикселей
Соотношение сторон : 16:9
Режим частоты кадров : Постоянный
Частота кадров : 25,000 кадров/сек
Цветовое пространство : YUV
Субдискретизация насыщенности : 4:2:0
Битовая глубина : 8 бит
Тип развёртки : Прогрессивная
Бит/(Пиксели*Кадры) : 0.086
Размер потока : 409 Мбайт (89%)
Библиотека кодирования : x264 core 138 r2358 9e941d1
Настройки программы : cabac=1 / ref=5 / deblock=1:0:0 / analyse=0x3:0x113 / me=umh / subme=8 / psy=1 / psy_rd=1.00:0.00 / mixed_ref=1 / me_range=16 / chroma_me=1 / trellis=1 / 8x8dct=1 / cqm=0 / deadzone=21,11 / fast_pskip=1 / chroma_qp_offset=-2 / threads=18 / lookahead_threads=3 / sliced_threads=0 / nr=0 / decimate=1 / interlaced=0 / bluray_compat=0 / constrained_intra=0 / bframes=3 / b_pyramid=2 / b_adapt=2 / b_bias=0 / direct=3 / weightb=1 / open_gop=0 / weightp=2 / keyint=250 / keyint_min=25 / scenecut=40 / intra_refresh=0 / rc_lookahead=50 / rc=crf / mbtree=1 / crf=18.0 / qcomp=0.60 / qpmin=0 / qpmax=69 / qpstep=4 / ip_ratio=1.40 / aq=1:1.00
Язык : English
Default : Да
Forced : Нет

Аудио
Идентификатор : 2
Формат : AC-3
Формат/Информация : Audio Coding 3
Расширение режима : CM (complete main)
Параметр Endianness формата : Big
Идентификатор кодека : A_AC3
Продолжительность : 28 м.
Вид битрейта : Постоянный
Битрейт : 192 Кбит/сек
Каналы : 2 канала
Расположение каналов : Front: L R
Частота : 48,0 КГц
Битовая глубина : 16 бит
Метод сжатия : С потерями
Размер потока : 39,8 Мбайт (9%)
Default : Да
Forced : Нет

9
00:01:14,480 --> 00:01:16,280
Эм, приходи просто как друг.

10
00:01:16,280 --> 00:01:18,600
У тебя еще моя...

11
00:01:18,600 --> 00:01:19,960
черная кофта с вырезом...

12
00:01:21,040 --> 00:01:22,480
Я очень люблю черные джемперы.

13
00:01:37,760 --> 00:01:38,760
Что?

14
00:03:00,520 --> 00:03:03,040
ДТП. Скорую.

15
00:03:07,720 --> 00:03:08,760
Обалдеть просто, да?

16
00:03:08,760 --> 00:03:12,320
Если бы вы прошли чуть дальше, вы бы с нами сейчас не разговаривали.

17
00:03:12,320 --> 00:03:13,600
Сер, вы что-нибудь пили?

18
00:03:13,600 --> 00:03:14,840
Простите?

19
00:03:14,840 --> 00:03:16,240
Выпили? Алкоголь?

20
00:03:16,240 --> 00:03:18,120
Немного, вчера вечером.

Раздача ведётся путём добавления новых серий; при каждом добавлении создаётся новый торрент. Чтобы начать докачку новой серии, пользователям необходимо сделать следующее:
(1) остановить скачивание,
(2) удалить старый торрент у себя из клиента (старые серии удалять не надо),
(3) скачать новый торрент и запустить его у себя в клиенте вместо старого, при этом указать клиенту путь в старую папку куда и должно происходить скачивание новых серий.
Ваш клиент при этом должен произвести хеширование (проверку) старой папки (если не производит сам - помогите ему сделать это), и будет докачивать только те серии которых у вас ещё нет. Старые серии при этом не удаляются, а продолжают раздаваться!
Eсли вы уже удалили старые серии, то предотвратить повторную закачку старых серий можно, отжав галочку в соответствующих местах при запуске нового торрента. По возможности, желательно не удалять старые серии как можно дольше чтобы релизёр не столько продолжал раздавать старые серии, а смог сконцентрироваться на новых.

Сериал продлен на второй сезон.



Скачать Не.те.парни.The.Wrong.Mans.(сезон.01).(Джим.Филд.Смит).[2013.комедия.HDTVRip].[720p].[Sub].torrent без регистрации
Золото ЗОЛОТАЯ РАЗДАЧА! СКАЧАННОЕ НЕ ЗАСЧИТЫВАЕТСЯ! Золото
Дата: Зарегистрирован   [ Тип: внутренний ] Как тут cкачать?
MAGNET ссылка
MAGNET ссылка


Скачать .torrent

15 KB

Статус: проверено DHT
Скачан: торрент - 118 раз, раздача полностью - 4 раз
Размер: 2,65 GB
Оценка:  - (Голосов: 0)
Поблагодарили: 0
Поделиться ссылкой на эту раздачу с друзьями:
В контактеFacebookОдноклассникиTwitterLivejournalМой МирLiveinternet
 

 
Показать сообщения:    


Вы не можете начинать темы
Вы не можете отвечать на сообщения
Вы не можете редактировать свои сообщения
Вы не можете удалять свои сообщения
Вы не можете голосовать в опросах
Вы не можете прикреплять файлы к сообщениям
Вы можете скачивать файлы