Loading...
Error

Скачать Не те парни / The Wrong Mans (сезон 01) (Джим Филд Смит) [2013, комедия, HDTVRip] [720p] [VO (Gramalant)] торрент без регистрации

 
Статистика раздачи
Размер:  2,88 GB   |    Скачан:  139 раз
Сидов:  1  [  0 KB/s  ]  
 
Автор Сообщение

МихаНЕзатор

[] 

Не те парни / The Wrong Mans


Год выпуска: 2013
Страна: Великобритания
Жанр: комедия
Продолжительность: 00:28:00

Перевод: Любительский (многоголосый закадровый) Студия "Gramalant"
Режиссёр: Джим Филд Смит

В ролях: Мэтью Бэйтон, Джеймс Корден, Том Базден, Дункан Поу, Сара Солмани и др.

Описание: Новый британский сериал от BBC рассказывает о двух офисных работниках Сэме Пинкетте и Филе Борне, чья жизнь переворачивается вверх ногами после случайного звонка, адресованного не им. Однажды утром Сэм стал свидетелем автомобильной аварии и, уходя после всех формальностей на работу, нашел чей-то телефон на дороге. Уже достаточно потрясенный увиденным событием, и сам несколько разбитый Сэм, слушает голос в трубке: "Если к пяти часам тебя здесь не будет, мы убьем твою жену". Сначала он решает как можно быстрее выбраться хотя бы от этой неприятной ситуации, но вдохновленный своим коллегой Филом, берется спасать "жену". Так начинается хаос, в центре которого крутятся разные подозрительные личности и даже тайный агент. Сэм и Фил должны уворачиваться от пуль и уходить от взрывов, чтобы спасти не только себя, но и своих близких...

Доп. информация:
Автор перевода: SemiIsland
Озвучено: Студия "Gramalant"
Роли озвучивали: Дмитрий Роецкий, Леонид Стативка и Александра Ларионова



Качество: HDTVRip 720p
Формат: MKV
Видео кодек: H.264
Аудио кодек: AC3
Видео: AVC, 1280x720, 25 fps, 1968 kbps, 0.085 b/p
Аудио: AC3, 48 kHz, 2 ch, 192 kbps [Gramalant]
Аудио 2: AC3, 48 kHz, 2 ch, 192 kbps [Original]
Субтитры: отсутствуют

16.12.2013 г. торент обновлён, добавлена 4-6 серия!

General
Unique ID : 241530411766214829361506503581524914933 (0xB5B510B43A9295E39FF90827646572F5)
Complete name : D:Torrent-раздачиThe Wrong Mans S01 (Gramalant)The.Wrong.Mans.s01e01.rus.gramalantstudio.mkv
Format : Matroska
Format version : Version 4 / Version 2
File size : 497 MiB
Duration : 28mn 57s
Overall bit rate : 2 400 Kbps
Encoded date : UTC 2013-10-19 10:12:39
Writing application : mkvmerge v6.3.0 ('You can't stop me!') built on Jul 19 2013 16:27:38
Writing library : Larry Sanders

Video
ID : 1
Format : AVC
Format/Info : Advanced Video Codec
Format profile : High@L4.1
Format settings, CABAC : Yes
Format settings, ReFrames : 5 frames
Codec ID : V_MPEG4/ISO/AVC
Duration : 28mn 57s
Bit rate : 1 968 Kbps
Width : 1 280 pixels
Height : 720 pixels
Display aspect ratio : 16:9
Frame rate mode : Constant
Frame rate : 25.000 fps
Color space : YUV
Chroma subsampling : 4:2:0
Bit depth : 8 bits
Scan type : Progressive
Bits/(Pixel*Frame) : 0.085
Stream size : 408 MiB (82%)
Writing library : x264 core 138 r2358 9e941d1
Encoding settings : cabac=1 / ref=5 / deblock=1:0:0 / analyse=0x3:0x113 / me=umh / subme=8 / psy=1 / psy_rd=1.00:0.00 / mixed_ref=1 / me_range=16 / chroma_me=1 / trellis=1 / 8x8dct=1 / cqm=0 / deadzone=21,11 / fast_pskip=1 / chroma_qp_offset=-2 / threads=18 / lookahead_threads=3 / sliced_threads=0 / nr=0 / decimate=1 / interlaced=0 / bluray_compat=0 / constrained_intra=0 / bframes=3 / b_pyramid=2 / b_adapt=2 / b_bias=0 / direct=3 / weightb=1 / open_gop=0 / weightp=2 / keyint=250 / keyint_min=25 / scenecut=40 / intra_refresh=0 / rc_lookahead=50 / rc=crf / mbtree=1 / crf=18.0 / qcomp=0.60 / qpmin=0 / qpmax=69 / qpstep=4 / ip_ratio=1.40 / aq=1:1.00
Language : English
Default : Yes
Forced : No

Audio #1
ID : 2
Format : AC-3
Format/Info : Audio Coding 3
Mode extension : CM (complete main)
Format settings, Endianness : Big
Codec ID : A_AC3
Duration : 28mn 57s
Bit rate mode : Constant
Bit rate : 192 Kbps
Channel count : 2 channels
Channel positions : Front: L R
Sampling rate : 48.0 KHz
Bit depth : 16 bits
Compression mode : Lossy
Stream size : 39.8 MiB (8%)
Title : RUS (Gramalant)
Language : Russian
Default : Yes
Forced : No

Audio #2
ID : 3
Format : AC-3
Format/Info : Audio Coding 3
Mode extension : CM (complete main)
Format settings, Endianness : Big
Codec ID : A_AC3
Duration : 28mn 57s
Bit rate mode : Constant
Bit rate : 192 Kbps
Channel count : 2 channels
Channel positions : Front: L R
Sampling rate : 48.0 KHz
Bit depth : 16 bits
Compression mode : Lossy
Stream size : 39.8 MiB (8%)
Title : ENG
Language : English
Default : No
Forced : No

Внимание! Раздача ведётся путём добавления новых серий; при каждом добавлении создётся новый торрент. Чтобы начать докачку новой серии, пользователям необходимо сделать следующее:

Остановить скачивание.
Удалить старый торрент у себя из клиента (старые серии удалять не надо).
Скачать новый торрент и запустить его у себя в клиенте вместо старого, при этом указать клиенту путь в старую папку куда и должно происходить скачивание новых серий.
Ваш клиент при этом должен произвести хеширование (проверку) старой папки (если не производит сам - помогите ему сделать это), и будет докачивать только те серии которых у вас ещё нет. Старые серии при этом не удаляются, а продолжают раздаваться!
Eсли вы уже удалили старые серии, то предотвратить повторную закачку старых серий можно, отжав галочку в соответсвующих местах при запуске нового торрента. По возможности, желательно не удалять старые серии как можно дольше чтобы релизёр не столько продолжал раздавать старые серии, а смог сконцентрироваться на новых.



Скачать Не.те.парни.The.Wrong.Mans.(сезон.01).(Джим.Филд.Смит).[2013.комедия.HDTVRip].[720p].[VO.(Gramalant)].torrent без регистрации
Золото ЗОЛОТАЯ РАЗДАЧА! СКАЧАННОЕ НЕ ЗАСЧИТЫВАЕТСЯ! Золото
Дата: Зарегистрирован   [ Тип: внутренний ] Как тут cкачать?
MAGNET ссылка
MAGNET ссылка


Скачать .torrent

15 KB

Статус: проверено DHT
Скачан: торрент - 139 раз, раздача полностью - 22 раз
Размер: 2,88 GB
Оценка:  - (Голосов: 0)
Поблагодарили: 3
Поделиться ссылкой на эту раздачу с друзьями:
В контактеFacebookОдноклассникиTwitterLivejournalМой МирLiveinternet
 

 

МихаНЕзатор

[] 

Раздача обновлена
 
Показать сообщения:    


Вы не можете начинать темы
Вы не можете отвечать на сообщения
Вы не можете редактировать свои сообщения
Вы не можете удалять свои сообщения
Вы не можете голосовать в опросах
Вы не можете прикреплять файлы к сообщениям
Вы можете скачивать файлы