Loading...
Error

Скачать Женщина в красном / The Woman in Red (Джин Уайлдер) [1984, мелодрама, комедия, HDTVRip] [AVO] торрент без регистрации

 
Статистика раздачи
Размер:  1,33 GB   |    Скачан:  101 раз
Сидов:  1  [  0 KB/s  ]  
 
Автор Сообщение

Marsianka

[] 

Информация о фильме
Название: Женщина в красном
Оригинальное название: The Woman in Red
Год выхода: 1984
Жанр: мелодрама, комедия
Режиссер: Джин Уайлдер
В ролях: Джин Уайлдер, Чарльз Гродин, Джозеф Болонья, Джудит Айви, Майкл Хаддлстон, Келли ЛеБрок, Гилда Рэднер, Кайл Т. Хеффнер, Майкл Зорек, Билли Бек

О фильме:
Однажды Тедди оказывается в одних трусах на карнизе за окном спальни красотки, и все это снимает телевидение. Как он оказался в этой нелепой ситуации? Всему виной сногсшибательная красавица Шарлотта, женщина в красном платье. У Тедди Пирса, есть все что нужно для счастливой жизни милая жена, дети, хорошая работа, друзья.

Все бы хорошо, но он отчаянно скучает и переживает кризис среднего возраста. Увидев сногсшибательную красотку в развевающемся красном платье, он безумно влюбляется в нее и теперь единственная цель для него забраться в ее постель. Все свое свободное время он тайно преследует предмет своей страсти, пытаясь во чтобы не стало осуществить задуманное.

Его друзья пускаются во все тяжкие, чтобы прикрыть его, от исполнения заветного желания отделяет одно мгновение, но.....

Женщина в красном (1984) HDTVRip Михалев.avi
General
Complete name :Женщина в красном (1984) HDTVRip Михалев.avi
Format : AVI
Format/Info : Audio Video Interleave
File size : 1.33 GiB
Duration : 1h 22mn
Overall bit rate : 2 297 Kbps
Writing application : VirtualDubMod 1.5.10.2 (build 2540/release)
Writing library : VirtualDubMod build 2540/release
Video #0
ID : 0
Format : MPEG-4 Visual
Format profile : Advanced Simple@L5
Format settings, BVOP : 2
Format settings, QPel : No
Format settings, GMC : No warppoints
Format settings, Matrix : Default (H.263)
Muxing mode : Packed bitstream
Codec ID : XVID
Codec ID/Hint : XviD
Duration : 1h 22mn
Bit rate : 2 095 Kbps
Width : 720 pixels
Height : 400 pixels
Display aspect ratio : 16:9
Frame rate : 25.000 fps
Color space : YUV
Chroma subsampling : 4:2:0
Bit depth : 8 bits
Scan type : Progressive
Compression mode : Lossy
Bits/(Pixel*Frame) : 0.291
Stream size : 1.21 GiB (91%)
Writing library : XviD 1.2.1 (UTC 2008-12-04)
Audio #1
ID : 1
Format : AC-3
Format/Info : Audio Coding 3
Mode extension : CM (complete main)
Format settings, Endianness : Big
Codec ID : 2000
Duration : 1h 22mn
Bit rate mode : Constant
Bit rate : 192 Kbps
Channel(s) : 2 channels
Channel positions : Front: L R
Sampling rate : 48.0 KHz
Bit depth : 16 bits
Compression mode : Lossy
Stream size : 114 MiB (8%)
Alignment : Split accross interleaves
Interleave, duration : 40 ms (1.00 video frame)
Interleave, preload duration : 500 ms
Страна: США
Студия: Orion Pictures
Продолжительность: 1:22:46
Перевод: Авторский (Одноголосый, закадровый) А.Михалев

Файл
Кодек: XviD
Качество: HDTVRip
Видео: 720x400, 2095kbps, 25,000fps, 0,291 pixel frame
Звук: AC3, 2ch, 192kbps
Субтитры: Нет



Скачать Женщина.в.красном.The.Woman.in.Red.(Джин.Уайлдер).[1984.мелодрама.комедия.HDTVRip].[AVO].torrent без регистрации
Золото ЗОЛОТАЯ РАЗДАЧА! СКАЧАННОЕ НЕ ЗАСЧИТЫВАЕТСЯ! Золото
Дата: Зарегистрирован   [ Тип: внутренний ] Как тут cкачать?
MAGNET ссылка
MAGNET ссылка


Скачать .torrent

14 KB

Статус: проверено DHT
Скачан: торрент - 101 раз, раздача полностью - 1 раз
Размер: 1,33 GB
Оценка:  - (Голосов: 0)
Поблагодарили: 0
Поделиться ссылкой на эту раздачу с друзьями:
В контактеFacebookОдноклассникиTwitterLivejournalМой МирLiveinternet
 

 
Показать сообщения:    


Вы не можете начинать темы
Вы не можете отвечать на сообщения
Вы не можете редактировать свои сообщения
Вы не можете удалять свои сообщения
Вы не можете голосовать в опросах
Вы не можете прикреплять файлы к сообщениям
Вы можете скачивать файлы