Loading...
Error

Скачать Элитный отряд / Высшая мера правосудия / Extreme Justice (Марк Л. Лестер) [1993, боевик, триллер, DVDRip] [AVO]+[Оригинал] торрент без регистрации

 
Статистика раздачи
Размер:  1,37 GB   |    Скачан:  134 раза
Сидов:  1  [  0 KB/s  ]  
 
Автор Сообщение

Marsianka

[] 

Информация о фильме
Название: Элитный отряд / Высшая мера правосудия
Оригинальное название: Extreme Justice
Год выхода: 1993
Жанр: боевик, триллер
Режиссер: Марк Л. Лестер
В ролях: Лу Даймонд Филлипс, Скотт Гленн, Челси Филд, Яфет Котто, Эндрю Дивофф, Ричард Гроув, Уильям Лаккинг, Л. Скотт Колдуэлл, Ларри Холт, Дэниэл Куинн

О фильме:
Полицейский спецназ безжалостно уничтожает самых прожженных преступников нетрадиционными методами, не укладывающимися в рамки закона и нормальной полицейской практики. Его тактика беспощадна случайные свидетели и потерпевшие считаются неизбежными жертвами и весьма эффективна.

Он становится фактически тайным эскадроном смерти полиции Лос-Анжелеса. Новый шеф департамента полиции не только подтверждает существование элитного отряда, но и обещает провести расследование его деятельности. За расследование также берется журналистка, состоящая в интимных отношениях с новичком отряда.
Высшая мера правосудия (1993) DVDRip Гаврилов.avi
General
Complete name : Высшая мера правосудия (1993) DVDRip Гаврилов.avi
Format : AVI
Format/Info : Audio Video Interleave
File size : 1.37 GiB
Duration : 1h 40mn
Overall bit rate : 1 945 Kbps
Writing application : VirtualDubMod 1.5.4.1 (build 2178/release)
Writing library : VirtualDubMod build 2178/release
Video #0
ID : 0
Format : MPEG-4 Visual
Format profile : Advanced Simple@L5
Format settings, BVOP : 1
Format settings, QPel : No
Format settings, GMC : No warppoints
Format settings, Matrix : Custom
Codec ID : XVID
Codec ID/Hint : XviD
Duration : 1h 40mn
Bit rate : 1 686 Kbps
Width : 720 pixels
Height : 544 pixels
Display aspect ratio : 4:3
Frame rate : 23.976 fps
Color space : YUV
Chroma subsampling : 4:2:0
Bit depth : 8 bits
Scan type : Progressive
Compression mode : Lossy
Bits/(Pixel*Frame) : 0.180
Stream size : 1.18 GiB (87%)
Writing library : XviD 1.2.0.dev47 (UTC 2006-11-01)
Audio #1
ID : 1
Format : MPEG Audio
Format version : Version 1
Format profile : Layer 3
Mode : Joint stereo
Mode extension : MS Stereo
Codec ID : 55
Codec ID/Hint : MP3
Duration : 1h 40mn
Bit rate mode : Constant
Bit rate : 128 Kbps
Channel(s) : 2 channels
Sampling rate : 48.0 KHz
Compression mode : Lossy
Stream size : 92.1 MiB (7%)
Alignment : Aligned on interleaves
Interleave, duration : 83 ms (2.00 video frames)
Interleave, preload duration : 504 ms
Writing library : LAME3.97
Encoding settings : -m j -V 4 -q 2 -lowpass 17 -b 128
Language : English
Audio #2
ID : 2
Format : MPEG Audio
Format version : Version 1
Format profile : Layer 3
Mode : Joint stereo
Mode extension : MS Stereo
Codec ID : 55
Codec ID/Hint : MP3
Duration : 1h 35mn
Bit rate mode : Constant
Bit rate : 128 Kbps
Channel(s) : 2 channels
Sampling rate : 48.0 KHz
Compression mode : Lossy
Stream size : 87.7 MiB (6%)
Alignment : Aligned on interleaves
Interleave, duration : 88 ms (2.10 video frames)
Interleave, preload duration : 504 ms
Writing library : LAME3.97
Encoding settings : -m j -V 4 -q 2 -lowpass 17 -b 128
Language : Russian


Страна: США
Студия: Arica Productions, Trimark Pictures
Продолжительность: 1:40:33
Перевод: Авторский (Одноголосый, закадровый) А. Гаврилов
Оригинал (Английский)

Файл
Кодек: XviD
Качество: DVDRip
Видео: 720x544, 1686kbps, 23.976fps, 0,180 pixel frame
Audio #1: mp3, 2ch, 128kbps [Eng]
Audio #2: mp3, 2ch, 128kbps [Гаврилов]
Субтитры: Нет



Скачать Элитный.отряд.Высшая.мера.правосудия.Extreme.Justice.(Марк.Л.Лестер).[1993.боевик.триллер.DVDRip].[AVO]+[Оригинал].torrent без регистрации
Золото ЗОЛОТАЯ РАЗДАЧА! СКАЧАННОЕ НЕ ЗАСЧИТЫВАЕТСЯ! Золото
Дата: Зарегистрирован   [ Тип: внутренний ] Как тут cкачать?
MAGNET ссылка
MAGNET ссылка


Скачать .torrent

14 KB

Статус: проверено DHT
Скачан: торрент - 134 раз, раздача полностью - 7 раз
Размер: 1,37 GB
Оценка:  - (Голосов: 0)
Поблагодарили: 3
Поделиться ссылкой на эту раздачу с друзьями:
В контактеFacebookОдноклассникиTwitterLivejournalМой МирLiveinternet
 

 
Показать сообщения:    


Вы не можете начинать темы
Вы не можете отвечать на сообщения
Вы не можете редактировать свои сообщения
Вы не можете удалять свои сообщения
Вы не можете голосовать в опросах
Вы не можете прикреплять файлы к сообщениям
Вы можете скачивать файлы