Loading...
Error

Скачать Мышиная охота / Mousehunt (Гор Вербински) [1997 г., комедия, приключения, семейный, HDTVRip-AVC] [DUB, MVO, DVO, AVO + Original + Sub] торрент без регистрации

 
Статистика раздачи
Размер:  2,18 GB   |    Скачан:  147 раз
Сидов:  1  [  0 KB/s  ]  
 
Автор Сообщение

durik

[] 

Мышиная охота / Mousehunt

Название: Мышиная охота
Оригинальное название: Mousehunt
Год выхода: 1997
Жанр: комедия, приключения, семейный
Режиссер: Гор Вербински
В ролях: Натан Лейн, Ли Эванс, Викки Льюис, Мори Чайкин, Эрик Кристмас, Майкл Джитер, Дебра Кристофферсон, Камилла Сёэберг, Йен Эберкромби, Аннабелль Гурвич, Уильям Хикки, Кристофер Уокен

О фильме:
Братья Ларс и Эрни Шмунц не придают особого значения унаследованному ими старому полуразрушенному особняку до тех пор, пока они не узнают, что их ветхая недвижимость стоит миллионы. Но есть одна проблема.
Чтобы продать дом, братья должны избавиться от его единственного и упрямого обитателя — маленькой, но очень цепкой мыши. То, что поначалу кажется детской игрой, становится настоящей грандиозной битвой.



Страна: США
Студия: DreamWorks SKG
Продолжительность: 01:35:23
Перевод:
1. Дублированный
2. Профессиональный многоголосый
3. Профессиональный двухголосый (Премьер Видео Фильм)
4. Авторский одноголосый (Кашкин)
5. Оригинальная звуковая дорожка (english)

Кодек: AVC
Формат: MKV
Качество: HDTVRip-AVC
Видео: 1024x576, 2172 kbps, 23,976 fps, 0.154 Bits/(Pixel*Frame)
Звук:
AC3, 48 kHz, 2 ch, 192 kbps - Дубляж
AC3, 48 kHz, 2 ch, 192 kbps - Профессиональный многоголосый
AC3, 48 kHz, 2 ch, 192 kbps - Профессиональный двухголосый (Премьер Видео Фильм)
AC3, 48 kHz, 2 ch, 192 kbps - Авторский одноголосый (Кашкин)
AC3, 48 kHz, 2 ch, 192 kbps - Оригинальная звуковая дорожка (english)
Субтитры: Русские

Релиз от: и

Автор рипа: Bathory
General
Unique ID : 218717483146872603359639312397190064683 (0xA48B747BE2EE964BA0ED4E0187206A2B)
Complete name : F:Myshinaja.ohota.1997.HDTVRip_AVC_by_Bathory.mkv
Format : Matroska
Format version : Version 4 / Version 2
File size : 2.18 GiB
Duration : 1h 37mn
Overall bit rate : 3 196 Kbps
Encoded date : UTC 2013-11-19 13:16:23
Writing application : mkvmerge v6.5.0 ('Isn't she lovely') built on Oct 20 2013 12:50:05
Writing library : libebml v1.3.0 + libmatroska v1.4.1

Video
ID : 1
Format : AVC
Format/Info : Advanced Video Codec
Format profile : High@L4.1
Format settings, CABAC : Yes
Format settings, ReFrames : 9 frames
Codec ID : V_MPEG4/ISO/AVC
Duration : 1h 37mn
Bit rate : 2 172 Kbps
Nominal bit rate : 2 301 Kbps
Width : 1 024 pixels
Height : 576 pixels
Display aspect ratio : 16:9
Frame rate mode : Constant
Frame rate : 23.976 fps
Color space : YUV
Chroma subsampling : 4:2:0
Bit depth : 8 bits
Scan type : Progressive
Bits/(Pixel*Frame) : 0.154
Stream size : 1.48 GiB (68%)
Writing library : x264 core 133 r2334 a3ac64b
Encoding settings : cabac=1 / ref=9 / deblock=1:-3:-3 / analyse=0x3:0x133 / me=umh / subme=11 / psy=1 / psy_rd=1.12:0.10 / mixed_ref=1 / me_range=32 / chroma_me=1 / trellis=2 / 8x8dct=1 / cqm=0 / deadzone=21,11 / fast_pskip=0 / chroma_qp_offset=-3 / threads=6 / lookahead_threads=1 / sliced_threads=0 / nr=10 / decimate=1 / interlaced=0 / bluray_compat=0 / constrained_intra=0 / bframes=12 / b_pyramid=2 / b_adapt=2 / b_bias=0 / direct=3 / weightb=1 / open_gop=0 / weightp=2 / keyint=240 / keyint_min=23 / scenecut=40 / intra_refresh=0 / rc_lookahead=60 / rc=2pass / mbtree=1 / bitrate=2301 / ratetol=1.0 / qcomp=0.60 / qpmin=0 / qpmax=69 / qpstep=4 / cplxblur=20.0 / qblur=0.5 / vbv_maxrate=62500 / vbv_bufsize=78125 / nal_hrd=none / ip_ratio=1.40 / aq=1:1.00
Default : Yes
Forced : No

Audio #1
ID : 2
Format : AC-3
Format/Info : Audio Coding 3
Mode extension : CM (complete main)
Format settings, Endianness : Big
Codec ID : A_AC3
Duration : 1h 37mn
Bit rate mode : Constant
Bit rate : 192 Kbps
Channel count : 2 channels
Channel positions : Front: L R
Sampling rate : 48.0 KHz
Bit depth : 16 bits
Compression mode : Lossy
Stream size : 134 MiB (6%)
Language : Russian
Default : Yes
Forced : No

Audio #2
ID : 3
Format : AC-3
Format/Info : Audio Coding 3
Mode extension : CM (complete main)
Format settings, Endianness : Big
Codec ID : A_AC3
Duration : 1h 37mn
Bit rate mode : Constant
Bit rate : 192 Kbps
Channel count : 2 channels
Channel positions : Front: L R
Sampling rate : 48.0 KHz
Bit depth : 16 bits
Compression mode : Lossy
Stream size : 134 MiB (6%)
Language : Russian
Default : No
Forced : No

Audio #3
ID : 4
Format : AC-3
Format/Info : Audio Coding 3
Mode extension : CM (complete main)
Format settings, Endianness : Big
Codec ID : A_AC3
Duration : 1h 37mn
Bit rate mode : Constant
Bit rate : 192 Kbps
Channel count : 2 channels
Channel positions : Front: L R
Sampling rate : 48.0 KHz
Bit depth : 16 bits
Compression mode : Lossy
Stream size : 134 MiB (6%)
Language : Russian
Default : No
Forced : No

Audio #4
ID : 5
Format : AC-3
Format/Info : Audio Coding 3
Mode extension : CM (complete main)
Format settings, Endianness : Big
Codec ID : A_AC3
Duration : 1h 37mn
Bit rate mode : Constant
Bit rate : 192 Kbps
Channel count : 2 channels
Channel positions : Front: L R
Sampling rate : 48.0 KHz
Bit depth : 16 bits
Compression mode : Lossy
Stream size : 134 MiB (6%)
Language : Russian
Default : No
Forced : No

Audio #5
ID : 6
Format : AC-3
Format/Info : Audio Coding 3
Mode extension : CM (complete main)
Format settings, Endianness : Big
Codec ID : A_AC3
Duration : 1h 37mn
Bit rate mode : Constant
Bit rate : 192 Kbps
Channel count : 2 channels
Channel positions : Front: L R
Sampling rate : 48.0 KHz
Bit depth : 16 bits
Compression mode : Lossy
Stream size : 134 MiB (6%)
Language : English
Default : No
Forced : No

Text
ID : 7
Format : UTF-8
Codec ID : S_TEXT/UTF8
Codec ID/Info : UTF-8 Plain Text
Language : Russian
Default : No
Forced : No



Скачать Мышиная.охота.Mousehunt.(Гор.Вербински).[1997.г.комедия.приключения.семейный.HDTVRip-AVC].[DUB.MVO.DVO.AVO.+.Original.+.Sub].torrent без регистрации
Золото ЗОЛОТАЯ РАЗДАЧА! СКАЧАННОЕ НЕ ЗАСЧИТЫВАЕТСЯ! Золото
Дата: Зарегистрирован   [ Тип: внутренний ] Как тут cкачать?
MAGNET ссылка
MAGNET ссылка


Скачать .torrent

11 KB

Статус: проверено DHT
Скачан: торрент - 147 раз, раздача полностью - 88 раз
Размер: 2,18 GB
Оценка:  - (Голосов: 0)
Поблагодарили: 2
Поделиться ссылкой на эту раздачу с друзьями:
В контактеFacebookОдноклассникиTwitterLivejournalМой МирLiveinternet
 

 
Показать сообщения:    


Вы не можете начинать темы
Вы не можете отвечать на сообщения
Вы не можете редактировать свои сообщения
Вы не можете удалять свои сообщения
Вы не можете голосовать в опросах
Вы не можете прикреплять файлы к сообщениям
Вы можете скачивать файлы