Loading...
Error

Скачать Ворон / The Crow (Алекс Пройас) [1994, фэнтези,триллер,BDRip-AVC] [MVO(ОРТ,НТВ)] [DUB ("Хлопушка")] [AVO( 2xГаврилов, Дохалов, Гоблин, Горчаков] [VO (Чадов)] + [Eng] торрент без регистрации

 
Статистика раздачи
Размер:  4,35 GB   |    Скачан:  145 раз
Сидов:  1  [  0 KB/s  ]  
 
Автор Сообщение

jon99

[] 




Год выпуска: 1994
Выпущено: США
Жанр: фэнтези, боевик, триллер
Продолжительность: 01:41:29
Перевод: Профессиональный (Многоголосый, закадровый) ОРТ
Перевод: Профессиональный (двухголосый, закадровый) НТВ
Перевод: Профессиональный (полное дублирование) Хлопушка
Перевод: Авторский (одноголосый, закадровый) Гаврилов 1 / 2
Перевод: Авторский (одноголосый, закадровый) Пучков (Гоблин)
Перевод: Авторский (одноголосый, закадровый) Горчаков
Перевод: Авторский (одноголосый, закадровый) Дохалов
Перевод: Одноголосый, закадровый Чадов
Субтитры: Русские/Английские
Режиссер: Алекс Пройас
В ролях: Брэндон Ли, Эрни Хадсон, Майкл Уинкотт, Дэвид Пэтрик Келли, Эйнджел Дэвид, Рошелль Дэвис, Джон Полито

Описание: Это была мрачная и страшная ночь. Ночь жуткого праздника Хэллоуин. Банда насильников и убийц, ворвавшись в дом молодой пары, жестоко расправилась с рок-музыкантом Эриком и его невестой Шелли. Спустя год Эрик Дрэйвен выбирается из могилы и отправляется на поиски убийц. Человек ли он? Или Ворон, жаждущий возмездия?



Доп. информация: Синхронизация и "подгон" дорожек JON99

Качество: BDRip-AVC
Формат: MKV
Видео кодек: H.264
Аудио кодек: AC3
Видео: AVC, 3000 Кбит/с, 1024x556, 23.976 кадр/с

Цитата:

Аудио#1: Русский (AC3, 2 ch, 192 Кбит/с), MVO - ORT (перевод с VHS)
Аудио#2: Русский (AC3, 2 ch, 192 Кбит/с), MVO - NTV
Аудио#3: Русский (AC3, 2 ch, 192 Кбит/с), Dub - "Хлопушка" (перевод с VHS)
Аудио#4: Русский (AC3, 2 ch, 192 Кбит/с), AVO - Гаврилов_v1
Аудио#5: Русский (AC3, 6 ch, 448 Кбит/с), AVO - Гаврилов_v2
Аудио#6: Русский (AC3, 2 ch, 192 Кбит/с), AVO - Дохалов (перевод с VHS)
Аудио#7: Русский (AC3, 6 ch, 448 Кбит/с), AVO - Гоблин (присутствует ненормативная лексика!)
Аудио#8: Русский (AC3, 6 ch, 448 Кбит/с), AVO - Горчаков (перевод с VHS)
Аудио#9: Русский (AC3, 6 ch, 384 Кбит/с), VO - Чадов (присутствует ненормативная лексика!)
Аудио#10: английский (AC3, 6 ch, 448 Кбит/с)

Цитата:

General
Complete name : J:\VIDEO\HD\The Crow (1994) BDRip-AVC\Voron.1994.x264.BDRip.(AVC).mkv
Format : Matroska
File size : 4.35 GiB
Duration : 1h 41mn
Overall bit rate : 6 131 Kbps
Movie name : Voron.1994.x264.BDRip.(AVC).ExKinoRay (Rip by Enigma-Vladislav71)
Encoded date : UTC 2013-11-20 17:51:13
Writing application : mkvmerge v4.3.0 ('Escape from the Island') сборка от Sep 5 2010 10:30:51
Writing library : libebml v1.0.0 + libmatroska v1.0.0

Video
ID : 1
Format : AVC
Format/Info : Advanced Video Codec
Format profile : High@L4.1
Format settings, CABAC : Yes
Format settings, ReFrames : 8 frames
Muxing mode : Container profile=Unknown@4.1
Codec ID : V_MPEG4/ISO/AVC
Duration : 1h 41mn
Bit rate : 2 873 Kbps
Nominal bit rate : 3 000 Kbps
Width : 1 024 pixels
Height : 556 pixels
Display aspect ratio : 16:9
Frame rate : 23.976 fps
Resolution : 8 bits
Colorimetry : 4:2:0
Scan type : Progressive
Bits/(Pixel*Frame) : 0.210
Stream size : 2.03 GiB (47%)
Writing library : x264 core 116 r2074 2641b9e
Encoding settings : cabac=1 / ref=8 / deblock=1:-2:-2 / analyse=0x3:0x133 / me=umh / subme=11 / psy=1 / psy_rd=1.00:0.00 / mixed_ref=1 / me_range=48 / chroma_me=1 / trellis=2 / 8x8dct=1 / cqm=0 / deadzone=21,11 / fast_pskip=0 / chroma_qp_offset=-2 / threads=3 / sliced_threads=0 / nr=0 / decimate=1 / interlaced=0 / bluray_compat=0 / constrained_intra=0 / bframes=8 / b_pyramid=2 / b_adapt=2 / b_bias=0 / direct=3 / weightb=1 / open_gop=0 / weightp=2 / keyint=250 / keyint_min=23 / scenecut=40 / intra_refresh=0 / rc=2pass / mbtree=0 / bitrate=3000 / ratetol=1.0 / qcomp=0.60 / qpmin=10 / qpmax=51 / qpstep=4 / cplxblur=20.0 / qblur=0.5 / ip_ratio=1.40 / pb_ratio=1.30 / aq=2:1.00

Audio #1
ID : 2
Format : AC-3
Format/Info : Audio Coding 3
Codec ID : A_AC3
Duration : 1h 41mn
Bit rate mode : Constant
Bit rate : 192 Kbps
Channel(s) : 2 channels
Channel positions : L R
Sampling rate : 48.0 KHz
Stream size : 139 MiB (3%)
Title : MVO - ORT
Language : Russian

Audio #2
ID : 3
Format : AC-3
Format/Info : Audio Coding 3
Codec ID : A_AC3
Duration : 1h 41mn
Bit rate mode : Constant
Bit rate : 192 Kbps
Channel(s) : 2 channels
Channel positions : L R
Sampling rate : 48.0 KHz
Stream size : 139 MiB (3%)
Title : MVO - NTV
Language : Russian

Audio #3
ID : 4
Format : AC-3
Format/Info : Audio Coding 3
Codec ID : A_AC3
Duration : 1h 41mn
Bit rate mode : Constant
Bit rate : 192 Kbps
Channel(s) : 2 channels
Channel positions : L R
Sampling rate : 48.0 KHz
Stream size : 139 MiB (3%)
Title : Dub "Хлопушка"
Language : Russian

Audio #4
ID : 5
Format : AC-3
Format/Info : Audio Coding 3
Codec ID : A_AC3
Duration : 1h 41mn
Bit rate mode : Constant
Bit rate : 192 Kbps
Channel(s) : 2 channels
Channel positions : L R
Sampling rate : 48.0 KHz
Stream size : 139 MiB (3%)
Title : AVO_Гаврилов_v1
Language : Russian

Audio #5
ID : 6
Format : AC-3
Format/Info : Audio Coding 3
Codec ID : A_AC3
Duration : 1h 41mn
Bit rate mode : Constant
Bit rate : 448 Kbps
Channel(s) : 6 channels
Channel positions : Front: L C R, Surround: L R, LFE
Sampling rate : 48.0 KHz
Stream size : 325 MiB (7%)
Title : AVO_Гаврилов_v2
Language : Russian

Audio #6
ID : 7
Format : AC-3
Format/Info : Audio Coding 3
Codec ID : A_AC3
Duration : 1h 41mn
Bit rate mode : Constant
Bit rate : 192 Kbps
Channel(s) : 2 channels
Channel positions : L R
Sampling rate : 48.0 KHz
Stream size : 139 MiB (3%)
Title : AVO_Дохалов
Language : Russian

Audio #7
ID : 8
Format : AC-3
Format/Info : Audio Coding 3
Codec ID : A_AC3
Duration : 1h 41mn
Bit rate mode : Constant
Bit rate : 448 Kbps
Channel(s) : 6 channels
Channel positions : Front: L C R, Surround: L R, LFE
Sampling rate : 48.0 KHz
Stream size : 325 MiB (7%)
Title : AVO_Гоблин
Language : Russian

Audio #8
ID : 9
Format : AC-3
Format/Info : Audio Coding 3
Codec ID : A_AC3
Duration : 1h 41mn
Bit rate mode : Constant
Bit rate : 448 Kbps
Channel(s) : 6 channels
Channel positions : Front: L C R, Surround: L R, LFE
Sampling rate : 48.0 KHz
Stream size : 325 MiB (7%)
Title : AVO_Горчаков
Language : Russian

Audio #9
ID : 10
Format : AC-3
Format/Info : Audio Coding 3
Codec ID : A_AC3
Duration : 1h 41mn
Bit rate mode : Constant
Bit rate : 384 Kbps
Channel(s) : 6 channels
Channel positions : Front: L C R, Surround: L R, LFE
Sampling rate : 48.0 KHz
Stream size : 279 MiB (6%)
Title : VO_Чадов
Language : Russian

Audio #10
ID : 11
Format : AC-3
Format/Info : Audio Coding 3
Codec ID : A_AC3
Duration : 1h 41mn
Bit rate mode : Constant
Bit rate : 448 Kbps
Channel(s) : 6 channels
Channel positions : Front: L C R, Surround: L R, LFE
Sampling rate : 48.0 KHz
Stream size : 325 MiB (7%)
Title : Original

Text #1
ID : 12
Format : UTF-8
Codec ID : S_TEXT/UTF8
Codec ID/Info : UTF-8 Plain Text
Language : Russian

Text #2
ID : 13
Format : UTF-8
Codec ID : S_TEXT/UTF8
Codec ID/Info : UTF-8 Plain Text





Скачать Ворон.The.Crow.(Алекс.Пройас).[1994.фэнтези.триллер.BDRip-AVC].[MVO(ОРТ.НТВ)].[DUB.("Хлопушка")].[AVO(.2xГаврилов.Дохалов.Гоблин.Горчаков].[VO.(Чадов)].+.[Eng].torrent без регистрации
Золото ЗОЛОТАЯ РАЗДАЧА! СКАЧАННОЕ НЕ ЗАСЧИТЫВАЕТСЯ! Золото
Дата: Зарегистрирован   [ Тип: внутренний ] Как тут cкачать?
MAGNET ссылка
MAGNET ссылка


Скачать .torrent

11 KB

Статус: проверено DHT
Скачан: торрент - 145 раз, раздача полностью - 0 раз
Размер: 4,35 GB
Оценка:  5 (Голосов: 4)
Поблагодарили: 9
Поделиться ссылкой на эту раздачу с друзьями:
В контактеFacebookОдноклассникиTwitterLivejournalМой МирLiveinternet
 

 

T1000

[] 

Цитата:

Подробная статистика пиров
maverick21045
maverick21045
ag
 

jon99

[] 

Это был Заключительный Фильм Брендона Ли ... информация под спойлером

Цитата:

во время сьемок которого он трагически погиб при неудачном трюке в фильме ( что самое интересное часть сюжет схоже с его действием в самой картине к примеру
"Брэндон умер за восемнадцать дней до собственной свадьбы" в самом же фильме "они умирают в один день" позже он воскресает чтобы отомстить ...)

T1000 писал(а):

Цитата:

Подробная статистика пиров
maverick21045
maverick21045
дак неудивительно это же культовый Фильм ay
 

T1000

[] 

jon99 писал(а):

дак
Дональд МакДак ag
 

jon99

[] 

T1000 писал(а):

jon99 писал(а):

дак
Дональд МакДак ag
ну вот такие слова использую , они присущи лишь мне ab
вот вся фильмография этого актера кто хочет найти те или иные фильмы ps большая часть есть на рутрекере
 

T1000

[] 

jon99 писал(а):

ну вот такие слова использую , они присущи лишь мне
та попустись ты, на умняке прям весь ag az
 

jon99

[] 

T1000 писал(а):

jon99 писал(а):

ну вот такие слова использую , они присущи лишь мне
та попустись ты, на умняке прям весь ag az
шо ? упякча Анатоле непонимае ag bm
лан больше не флудим ab
 

T1000

[] 

jon99 писал(а):

лан больше не флудим
 
Показать сообщения:    


Вы не можете начинать темы
Вы не можете отвечать на сообщения
Вы не можете редактировать свои сообщения
Вы не можете удалять свои сообщения
Вы не можете голосовать в опросах
Вы не можете прикреплять файлы к сообщениям
Вы можете скачивать файлы