Loading...
Error

Скачать Последний день будущего / Evilution (Крис Конли / Chris Conley) [2008, США, ужасы,треш, WEBRip] [MVO] + [Sub Rus] торрент без регистрации

 
Статистика раздачи
Размер:  749 MB   |    Скачан:  145 раз
Сидов:  1  [  0 KB/s  ]  
 
Автор Сообщение

deadmauVlad

[] 

Последний день будущего / Evilution

Страна: США
Жанр: ужасы,треш
Год выпуска: 2008
Продолжительность: 01:26:49

Перевод: Профессиональный (многоголосый закадровый)
Cубтитры: русские
Оригинальная аудиодорожка: нет

Режиссер: Крис Конли / Chris Conley

В ролях: им Кольчери ("Игра без правил"), Ноэль Гаглиэми ("Дикая вечеринка"), Гильермо Диас ("Мясник"), Эрик Петер-Кайзер, Сандра Рамирез, Джеймс Дюваль, Натан Бекстон, Джонатан Брек, Билли Моррисон, Рики Уорвик

Описание: В секретном военном гарнизоне эпидемия! Неизвестный вирус превращает солдат спецназа в кровожадных зомби. Противоядие мутации есть, но оно несовершенно. Молодому ученому, проходящему службу в зараженном гарнизоне, удается вырваться из окружения зомби и, забрав вакцину противоядия, сбежать в другой город, чтобы там, в лабораторных условиях, его усовершенствовать…

Сэмпл: http://multi-up.com/924427

Качество видео: WEBRip
Формат видео: AVI

Видео: 624x352 (1.77:1), 29.970 fps, XviD build 50 ~1066 kbps avg, 0.16 bit/pixel
Аудио: 48 kHz, AC3 Dolby Digital, 2/0 (L,R) ch, ~128 kbps
Формат субтитров: softsub (SRT)

Общее
Полное имя : D:\Рипы выкладка [Deadmauvlad]\Последний день будущего.WEBRip.Deadmauvlad + Sub(Rus)\Последний день будущего.WEBRip.Deadmauvlad.avi
Формат : AVI
Формат/Информация : Audio Video Interleave
Размер файла : 749 Мбайт
Продолжительность : 1 ч. 26 м.
Общий поток : 1206 Кбит/сек
Название фильма : Последний день будущего.WEBRip.Deadmauvlad
Режиссёр : Deadmauvlad
Жанр : Ужасы, Треш
Программа кодирования : VirtualDubMod 1.5.10.3 | www.virtualdub-fr.org || (build 2550/release)
Формат оригинала/Имя : Фильм
Правообладатель : Deadmauvlad Team'S

Видео
Идентификатор : 0
Формат : MPEG-4 Visual
Профиль формата : Advanced Simple@L5
Параметр BVOP формата : 2
Параметр QPel формата : Нет
Параметр GMC формата : Без точки перехода
Параметр матрицы формата : Default (MPEG)
Идентификатор кодека : XVID
Идентификатор кодека/Подсказка : XviD
Продолжительность : 1 ч. 26 м.
Битрейт : 1066 Кбит/сек
Ширина : 624 пикселя
Высота : 352 пикселя
Соотношение сторон : 16:9
Частота кадров : 29,970 кадров/сек
Цветовое пространство : YUV
Субдискретизация насыщенности : 4:2:0
Битовая глубина : 8 бит
Тип развёртки : Прогрессивная
Метод сжатия : С потерями
Бит/(Пиксели*Кадры) : 0.162
Размер потока : 662 Мбайт (88%)
Библиотека кодирования : XviD 1.2.1 (UTC 2008-12-04)

Аудио
Идентификатор : 1
Формат : AC-3
Формат/Информация : Audio Coding 3
Расширение режима : CM (complete main)
Параметр Endianness формата : Big
Идентификатор кодека : 2000
Продолжительность : 1 ч. 26 м.
Вид битрейта : Постоянный
Битрейт : 128 Кбит/сек
Каналы : 2 канала
Расположение каналов : Front: L R
Частота : 48,0 КГц
Битовая глубина : 16 бит
Метод сжатия : С потерями
Размер потока : 79,5 Мбайт (11%)
Выравнивание : Разделение по промежуткам
Продолжительность промежутка : 33 мс. (1,00 видеокадр)
Время предзагрузки промежутка : 500 мс.
Релиз / Автор рипа Deadmauvlad



Скачать Последний.день.будущего.Evilution.(Крис.Конли.Chris.Conley).[2008.США.ужасы.треш.WEBRip].[MVO].+.[Sub.Rus].torrent без регистрации
Золото ЗОЛОТАЯ РАЗДАЧА! СКАЧАННОЕ НЕ ЗАСЧИТЫВАЕТСЯ! Золото
Дата: Зарегистрирован   [ Тип: внутренний ] Как тут cкачать?
MAGNET ссылка
MAGNET ссылка


Скачать .torrent

15 KB

Статус: проверено DHT
Скачан: торрент - 145 раз, раздача полностью - 20 раз
Размер: 749 MB
Оценка:  5 (Голосов: 1)
Поблагодарили: 1
Поделиться ссылкой на эту раздачу с друзьями:
В контактеFacebookОдноклассникиTwitterLivejournalМой МирLiveinternet
 

 
Показать сообщения:    


Вы не можете начинать темы
Вы не можете отвечать на сообщения
Вы не можете редактировать свои сообщения
Вы не можете удалять свои сообщения
Вы не можете голосовать в опросах
Вы не можете прикреплять файлы к сообщениям
Вы можете скачивать файлы