Loading...
Error

Скачать Живая мертвечина / Dead Alive / Braindead (Питер Джексон / Peter Jackson) [1992, Новая Зеландия, ужасы, комедия, BDRip-AVC] [MVO]+[Original (Eng)]+[Sub (Rus, Eng)] торрент без регистрации

 
Статистика раздачи
Размер:  2,28 GB   |    Скачан:  139 раз

Полного источника не было: 1 месяц 3 дня

 
Автор Сообщение

Dinozavr

[] 

Живая мертвечина / Dead Alive / Braindead

Страна: Новая Зеландия
Жанр: ужасы, комедия
Год выпуска: 1992
Продолжительность: 01:37:16

Перевод: Профессиональный (многоголосый закадровый)
Cубтитры: русские (2 вида), английские (полные + SDH) | Отдельно
Оригинальная аудиодорожка: английский

Режиссер: Питер Джексон / Peter Jackson

В ролях: Тимоти Бальм, Диана Пеньяльвер, Элизабет Муди, Йен Уаткин, Бренда Кендалл, Стюарт Девени, Джед Брофи, Стефен Паппс, Мюррэй Кин, Гленис Левестам

Описание: 1957 год. С острова Суматра вывезена обезьяна, из-за одного укуса которой туземцы отрубили зоологу, приехавшему ее отловить, обе руки, а затем и голову. Уже в наше время эта тварь укусила злобную мамашу нашего героя, которая не дает ему встречаться с любимой девушкой. Последствия укуса ужасны, картину постепенно населяют жуткие зомби…

КиноПоиск | IMDb | Sample

Доп. информация: видеодорога перекодирована Bathory

Качество видео: BDRip-AVC | Source: BDRemux 1080p
Формат видео: MKV

Видео: x264, 1024x576 (16:9), 23.976 fps, 2980 kbps
Аудио: Russian; AC-3, 48.0 kHz, 192 kbps, 2/0 (L,R) ch
Аудио 2: English; AC-3, 48.0 kHz, 192 kbps, 2/0 (L,R) ch | Отдельно
Формат субтитров: softsub (SRT)

Код:

General
Unique ID                                : 226852230474333369932873653837572858301 (0xAAAA267E225BB054A74DA38A1EDFE1BD)
Complete name                            : Dead.Alive.1992.BDRip.mkv
Format                                   : Matroska
Format version                           : Version 2
File size                                : 2.15 GiB
Duration                                 : 1h 37mn
Overall bit rate                         : 3 170 Kbps
Encoded date                             : UTC 2013-11-22 12:26:37
Writing application                      : mkvmerge v6.5.0 ('Isn't she lovely') built on Oct 20 2013 12:50:05
Writing library                          : libebml v1.3.0 + libmatroska v1.4.1

Video
ID                                       : 1
Format                                   : AVC
Format/Info                              : Advanced Video Codec
Format profile                           : High@L4.1
Format settings, CABAC                   : Yes
Format settings, ReFrames                : 10 frames
Codec ID                                 : V_MPEG4/ISO/AVC
Duration                                 : 1h 37mn
Bit rate                                 : 2 980 Kbps
Width                                    : 1 024 pixels
Height                                   : 576 pixels
Display aspect ratio                     : 16:9
Frame rate mode                          : Constant
Frame rate                               : 23.976 fps
Color space                              : YUV
Chroma subsampling                       : 4:2:0
Bit depth                                : 8 bits
Scan type                                : Progressive
Bits/(Pixel*Frame)                       : 0.211
Stream size                              : 1.98 GiB (92%)
Writing library                          : x264 core 130 r2273 b3065e6
Encoding settings                        : cabac=1 / ref=10 / deblock=1:-3:-3 / analyse=0x3:0x113 / me=umh / subme=10 / psy=1 / psy_rd=1.08:0.16 / mixed_ref=1 / me_range=32 / chroma_me=1 / trellis=2 / 8x8dct=1 / cqm=0 / deadzone=21,11 / fast_pskip=1 / chroma_qp_offset=-5 / threads=6 / lookahead_threads=1 / sliced_threads=0 / nr=4 / decimate=1 / interlaced=0 / bluray_compat=0 / constrained_intra=0 / bframes=3 / b_pyramid=2 / b_adapt=2 / b_bias=0 / direct=3 / weightb=1 / open_gop=0 / weightp=2 / keyint=240 / keyint_min=22 / scenecut=40 / intra_refresh=0 / rc_lookahead=60 / rc=2pass / mbtree=0 / bitrate=2980 / ratetol=1.0 / qcomp=0.70 / qpmin=10 / qpmax=69 / qpstep=4 / cplxblur=20.0 / qblur=0.5 / vbv_maxrate=62500 / vbv_bufsize=78125 / nal_hrd=none / ip_ratio=1.40 / pb_ratio=1.30 / aq=1:1.00
Default                                  : Yes
Forced                                   : No

Audio
ID                                       : 2
Format                                   : AC-3
Format/Info                              : Audio Coding 3
Mode extension                           : CM (complete main)
Format settings, Endianness              : Big
Codec ID                                 : A_AC3
Duration                                 : 1h 37mn
Bit rate mode                            : Constant
Bit rate                                 : 192 Kbps
Channel(s)                               : 2 channels
Channel positions                        : Front: L R
Sampling rate                            : 48.0 KHz
Bit depth                                : 16 bits
Compression mode                         : Lossy
Stream size                              : 134 MiB (6%)
Language                                 : Russian
Default                                  : Yes
Forced                                   : No



Скачать Живая.мертвечина.Dead.Alive.Braindead.(Питер.Джексон.Peter.Jackson).[1992.Новая.Зеландия.ужасы.комедия.BDRip-AVC].[MVO]+[Original.(Eng)]+[Sub.(Rus.Eng)].torrent без регистрации
Золото ЗОЛОТАЯ РАЗДАЧА! СКАЧАННОЕ НЕ ЗАСЧИТЫВАЕТСЯ! Золото
Дата: Зарегистрирован   [ Тип: внутренний ] Как тут cкачать?
MAGNET ссылка
MAGNET ссылка


Скачать .torrent

12 KB

Статус: * не проверено
Скачан: торрент - 139 раз, раздача полностью - 47 раз
Размер: 2,28 GB
Оценка:  - (Голосов: 0)
Поблагодарили: 1
Поделиться ссылкой на эту раздачу с друзьями:
В контактеFacebookОдноклассникиTwitterLivejournalМой МирLiveinternet
 

 
Показать сообщения:    


Вы не можете начинать темы
Вы не можете отвечать на сообщения
Вы не можете редактировать свои сообщения
Вы не можете удалять свои сообщения
Вы не можете голосовать в опросах
Вы не можете прикреплять файлы к сообщениям
Вы можете скачивать файлы