Loading...
Error

Скачать Колония / Двойная команда / Double Team (Цуй Харк) [1997, боевик, триллер, комедия, BDRip] [Dub]+[MVO]+[DVO]+[AVO]x2+[Оригинал]+[Sub] торрент без регистрации

 
Статистика раздачи
Размер:  2,43 GB   |    Скачан:  111 раз
Сидов:  1  [  0 KB/s  ]  
 
Автор Сообщение

Marsianka

[] 

Название: Колония (Двойная команда)
Оригинальное название: Double Team
Год выпуска: 1997
Жанр: боевик, триллер, комедия
Выпущено: США, Columbia Pictures, Film Workshop Ltd., Mandalay Entertainment, One Story Pictures
Режиссер: Цуй Харк
В ролях: Жан-Клод Ван Дамм, Дэннис Родман, Микки Рурк, Пол Фримен, Наташа Линдинжер, Валерия Кавалли, Джей Бенедикт, Джоэлль Дэво-Вуллион, Бруно Билотта, Марио Опинато, Грант Расселл, Уильям Данн, Ашер Царфати, Роб Дьем, Кен Сэмюэлс, Сэнди Уэлш, Джессика Форд, Малик Боуэнс, Доминик Гулд, Фредерик Ренард, Кайрилл Дуфот, Эрик Гочи, Патрик Кодерлье, Орсо Мария Гуэррини, Александр Компан, Ганс Мейер, Джесси Джо Уолш, Питер Нельсон, Паоло Калиссано, Паскаль Лопез, Доминик Фуассьер, Паоло Паолони, Жан-Пьерр Стюарт, Тед Русофф, Умберто Рахо, Адам Кейци, Синь Синь Сюн, Паскалин Гирардот, Натали Грак, Сигал Дайэмант

О фильме: Жан-Клод в роли секретного суперагента Джека Куинна. Ему поручают убрать опасного международного террориста Ставроса, но в самый ответственный момент, когда нужно было нажимать на спусковой курок, Ставрос обнимает жену и ребёнка, и рука Джека дрогнула. Он упускает врага, хотя жена и сын того погибают. Теперь у Ставроса появляются веские личные счёты с теми, кто заказал его убийство. Итак, Джек совершил ошибку, а такое не прощается. И он помещается в колонию, став «мертвецом» для всего остального мира, включая собственную семью. Здесь обитают «мёртвые» лучшие шпионы и агенты со всей планеты. Они слишком опасны, чтобы жить, и слишком дорого стоят, чтобы быть убитыми. Их используют для анализа и отработки экстремальных ситуаций. Однако Куинн не смиряется и совершает невероятный побег, чтобы довести задание до конца. Он находит себе партнёра, эксцентричного торговца оружием, чернокожего лихого парня с единственной страстью разрушать. У них разный стиль, но одна задача



Качество: BDRip
Размер: 2.43 ГБ
Продолжительность: 01:33:00

Видео: XviD, 1803 Кбит/с, 720x304
Аудио 1: русский, 48 kHz, AC3, 6 ch, 384 kbps avg, [Дублированный]
Аудио 2: русский, 48 kHz, AC3, 6 ch, 384 kbps avg, [Профессиональный многоголосый, R5]
Аудио 3: русский, 48 kHz, AC3, 2 ch, 192 kbps avg, [Профессиональный двухголосый, TB3]

Внешние файлы
Аудио: русский, 48 kHz, AC3, 6 ch, 384 kbps avg, [Авторский, Андрей Гаврилов]
Аудио: русский, 48 kHz, AC3, 2 ch, 192 kbps avg, [Авторский, Юрий Живов]
Аудио: английский, 48 kHz, AC3, 6 ch, 384 kbps avg, [Оригинал]
Субтитры: русские
Исходник: Marchik60 (Кинозал)

Сравнение с исходником
Общее
Полное имя : E:VideoKolonija.1997.x264.BDRipKolonija.1997.AVO.rus.А.Гаврилов.ac3
Формат : AC-3
Формат/Информация : Audio Coding 3
Размер файла : 255 Мбайт
Продолжительность : 1 ч. 33 м.
Режим общего битрейта : Постоянный
Общий поток : 384 Кбит/сек

Аудио
Формат : AC-3
Формат/Информация : Audio Coding 3
Расширение режима : CM (complete main)
Параметр Endianness формата : Big
Продолжительность : 1 ч. 33 м.
Вид битрейта : Постоянный
Битрейт : 384 Кбит/сек
Каналы : 6 каналов
Расположение каналов : Front: L C R, Side: L R, LFE
Частота : 48,0 КГц
Битовая глубина : 16 бит
Метод сжатия : С потерями
Размер потока : 255 Мбайт (100%)

Общее
Полное имя : E:VideoKolonija.1997.x264.BDRipKolonija.1997.AVO.rus.Ю.Живов.ac3
Формат : AC-3
Формат/Информация : Audio Coding 3
Размер файла : 128 Мбайт
Продолжительность : 1 ч. 33 м.
Режим общего битрейта : Постоянный
Общий поток : 192 Кбит/сек

Аудио
Формат : AC-3
Формат/Информация : Audio Coding 3
Расширение режима : CM (complete main)
Параметр Endianness формата : Big
Продолжительность : 1 ч. 33 м.
Вид битрейта : Постоянный
Битрейт : 192 Кбит/сек
Каналы : 2 канала
Расположение каналов : Front: L R
Частота : 48,0 КГц
Битовая глубина : 16 бит
Метод сжатия : С потерями
Размер потока : 128 Мбайт (100%)

Общее
Полное имя : E:VideoKolonija.1997.x264.BDRipKolonija.1997.Original.eng.ac3
Формат : AC-3
Формат/Информация : Audio Coding 3
Размер файла : 255 Мбайт
Продолжительность : 1 ч. 33 м.
Режим общего битрейта : Постоянный
Общий поток : 384 Кбит/сек

Аудио
Формат : AC-3
Формат/Информация : Audio Coding 3
Расширение режима : CM (complete main)
Параметр Endianness формата : Big
Продолжительность : 1 ч. 33 м.
Вид битрейта : Постоянный
Битрейт : 384 Кбит/сек
Каналы : 6 каналов
Расположение каналов : Front: L C R, Side: L R, LFE
Частота : 48,0 КГц
Битовая глубина : 16 бит
Метод сжатия : С потерями
Размер потока : 255 Мбайт (100%)

Общее
Полное имя : E:VideoKolonija.1997.x264.BDRipKolonija.1997.rus.srt
Размер файла : 62,3 Кбайт

Общее
Полное имя : E:VideoKolonija.1997.x264.BDRipKolonija.1997.x264.BDRip.avi
Формат : AVI
Формат/Информация : Audio Video Interleave
Размер файла : 1,81 Гбайт
Продолжительность : 1 ч. 33 м.
Общий поток : 2782 Кбит/сек
Программа кодирования : VirtualDubMod 1.5.10.2 (build 2540/release)
Библиотека кодирования : VirtualDubMod build 2540/release

Видео
Идентификатор : 0
Формат : MPEG-4 Visual
Профиль формата : Advanced Simple@L5
Параметр BVOP формата : 1
Параметр QPel формата : Нет
Параметр GMC формата : Без точки перехода
Параметр матрицы формата : Default (H.263)
Режим смешивания : Сжатый битовый поток
Идентификатор кодека : XVID
Идентификатор кодека/Подсказка : XviD
Продолжительность : 1 ч. 33 м.
Битрейт : 1803 Кбит/сек
Ширина : 720 пикселей
Высота : 304 пикселя
Соотношение сторон : 2,35:1
Частота кадров : 23,976 кадра/сек
Цветовое пространство : YUV
Субдискретизация насыщенности : 4:2:0
Битовая глубина : 8 бит
Тип развёртки : Прогрессивная
Метод сжатия : С потерями
Бит/(Пиксели*Кадры) : 0.344
Размер потока : 1,17 Гбайт (65%)
Библиотека кодирования : XviD 1.2.1 (UTC 2008-12-04)

Аудио #1
Идентификатор : 1
Формат : AC-3
Формат/Информация : Audio Coding 3
Расширение режима : CM (complete main)
Параметр Endianness формата : Big
Идентификатор кодека : 2000
Продолжительность : 1 ч. 33 м.
Вид битрейта : Постоянный
Битрейт : 384 Кбит/сек
Каналы : 6 каналов
Расположение каналов : Front: L C R, Side: L R, LFE
Частота : 48,0 КГц
Битовая глубина : 16 бит
Метод сжатия : С потерями
Размер потока : 255 Мбайт (14%)
Выравнивание : Разделение по промежуткам
Продолжительность промежутка : 42 мс. (1,00 видеокадр)
Время предзагрузки промежутка : 500 мс.

Аудио #2
Идентификатор : 2
Формат : AC-3
Формат/Информация : Audio Coding 3
Расширение режима : CM (complete main)
Параметр Endianness формата : Big
Идентификатор кодека : 2000
Продолжительность : 1 ч. 33 м.
Вид битрейта : Постоянный
Битрейт : 384 Кбит/сек
Каналы : 6 каналов
Расположение каналов : Front: L C R, Side: L R, LFE
Частота : 48,0 КГц
Битовая глубина : 16 бит
Метод сжатия : С потерями
Размер потока : 255 Мбайт (14%)
Выравнивание : Разделение по промежуткам
Продолжительность промежутка : 42 мс. (1,00 видеокадр)
Время предзагрузки промежутка : 500 мс.

Аудио #3
Идентификатор : 3
Формат : AC-3
Формат/Информация : Audio Coding 3
Расширение режима : CM (complete main)
Параметр Endianness формата : Big
Идентификатор кодека : 2000
Продолжительность : 1 ч. 33 м.
Вид битрейта : Постоянный
Битрейт : 192 Кбит/сек
Каналы : 2 канала
Расположение каналов : Front: L R
Частота : 48,0 КГц
Битовая глубина : 16 бит
Метод сжатия : С потерями
Размер потока : 128 Мбайт (7%)
Выравнивание : Разделение по промежуткам
Продолжительность промежутка : 42 мс. (1,00 видеокадр)
Время предзагрузки промежутка : 500 мс.



Скачать Колония.Двойная.команда.Double.Team.(Цуй.Харк).[1997.боевик.триллер.комедия.BDRip].[Dub]+[MVO]+[DVO]+[AVO]x2+[Оригинал]+[Sub].torrent без регистрации
Золото ЗОЛОТАЯ РАЗДАЧА! СКАЧАННОЕ НЕ ЗАСЧИТЫВАЕТСЯ! Золото
Дата: Зарегистрирован   [ Тип: внутренний ] Как тут cкачать?
MAGNET ссылка
MAGNET ссылка


Скачать .torrent

13 KB

Статус: проверено DHT
Скачан: торрент - 111 раз, раздача полностью - 4 раз
Размер: 2,43 GB
Оценка:  5 (Голосов: 2)
Поблагодарили: 5
Поделиться ссылкой на эту раздачу с друзьями:
В контактеFacebookОдноклассникиTwitterLivejournalМой МирLiveinternet
 

 
Показать сообщения:    


Вы не можете начинать темы
Вы не можете отвечать на сообщения
Вы не можете редактировать свои сообщения
Вы не можете удалять свои сообщения
Вы не можете голосовать в опросах
Вы не можете прикреплять файлы к сообщениям
Вы можете скачивать файлы