Loading...
Error

Скачать Вавилон / Babel (Алехандро Гонсалес Иньярриту) [2006, драма, BDRip-AVC] [Dub]+[DVO]ч2+[AVO]+[MVO] торрент без регистрации

 
Статистика раздачи
Размер:  6,19 GB   |    Скачан:  125 раз
Сидов:  1  [  0 KB/s  ]  
 
Автор Сообщение

Marsianka

[] 

Информация о фильме
Название: Вавилон
Оригинальное название: Babel
Год выхода: 2006
Жанр: драма
Режиссер: Алехандро Гонсалес Иньярриту
В ролях: Брэд Питт, Кейт Бланшетт, Гаэль Гарсия Берналь, Кодзи Якусё, Ринко Кикучи, Адриана Барраза, Элль Фэннинг, Натан Гэмбл, Майкл Пенья, Клифтон Коллинз мл., Р.Д. Колл, Мохамед Ахзам, Питер Уайт, Харриет Уолтер, Тревор Мартин, Мэтилок Гиббс, Жорж Буске, Клодин Акс, Андре Умански, Майкл Мэлоуни, Дермот Краули, Венди Ноттинхэм, Генри Маратрей, Линда Бротон, Жан Марк Юло, Алин Моуат, Лилиан Эскоса, Линси Бошан, Мишель Дюбуа, Ширли Диксон, Патрик Лебре, Джон ОМохони, Мэри Митчел, Эдвард Лион, Роберт Файф, Абделазиз Мерзуг, Омар Эль Маллули, Эль Хассан Аит Баблаль, Сфиа Аит Бенбулл

О фильме:
Действие фильма разворачивается в Марокко, Мексике и Японии, а отправной точкой сюжета становится трагедия, которую супруги Ричард и Сюзан переживают во время своей туристической поездки по Марокко. Сюзан становится жертвой шальной пули, выпущенной из ружья по туристическому автобусу двумя местными мальчишками.В это же время двое детей Ричарда и Сюзан, оставленные под присмотр няни-мексиканки, отправляются вместе с ней в Мексику на свадьбу ее сына, и это путешествие оказывается в итоге далеко не из легких. И, наконец, в Токио тяжело переживающая самоубийство матери глухонемая студентка Чиеко ведет себя вызывающе, вступает в перепалку с отцом и разными способами срывает свое зло на окружающих



Страна: США, Франция, Мексика
Студия: Anonymous Content, Central Films, Media Rights Capital, Paramount Pictures, Paramount Vantage, Zeta Film
Продолжительность: 02:23:12
Перевод: Дублированный, профессиональный двухголосый, авторский одноголосый, профессиональный многоголосый

Файл
Кодек: x264
Качество: BDRip-AVC
Видео: MPEG-4 AVC, 3500 Кбит/с, 1024x556, 23.976 кадр/с
Аудио #1: Русский (AC3, 6 ch, 448 Кбит/с) / Дублированный
Аудио #2: Русский (AC3, 6 ch, 448 Кбит/с) / Профессиональный двухголосый (П.Гланц, И.Королева)
Аудио #3: Русский (AC3, 6 ch, 448 Кбит/с) / Авторский одноголосый (Ю.Сербин)
Аудио #4: Русский (AC3, 6 ch, 448 Кбит/с) / Профессиональный многоголосый (Киномания)
Аудио #5: Русский (AC3, 6 ch, 448 Кбит/с) / Профессиональный двухголосый (П.Гланц и И.Королёва с DVD Superbit - Специальное Российское Издание)
Аудио #6: Английский (AC3, 6 ch, 448 Кбит/с)
Субтитры: Русские (West Video), русские (Киномания), украинские, английские, английские (для разговоров на иностранных языках)
Семпл
x264 [info]: frame I:1543 Avg QP:15.51 size:103802
x264 [info]: frame P:62096 Avg QP:18.11 size: 33256
x264 [info]: frame B:142377 Avg QP:19.93 size: 10769

=============================================

Уникальный идентификатор : 234341143673687977622979975797062450904 (0xB04C766BA9CA4995A75D4C0FA4FB3ED8)
Полное имя : E:MCVavilon.2006.x264.BDRip(AVC)-MediaClubVavilon.2006.x264.BDRip(AVC)-MediaClub.mkv
Формат : Matroska
Версия формата : Version 4 / Version 2
Размер файла : 6,19 Гбайт
Продолжительность : 2 ч. 23 м.
Общий поток : 6180 Кбит/сек
Название фильма : -= Release MediaClub =-
Дата кодирования : UTC 2013-11-20 20:57:32
Программа кодирования : mkvmerge v6.4.1 ('Omega Point') built on Sep 16 2013 22:05:10
Библиотека кодирования : libebml v1.3.0 + libmatroska v1.4.1

Видео
Идентификатор : 1
Формат : AVC
Формат/Информация : Advanced Video Codec
Профиль формата : High@L4.1
Параметр CABAC формата : Да
Параметр ReFrames формата : 11 кадров
Идентификатор кодека : V_MPEG4/ISO/AVC
Продолжительность : 2 ч. 23 м.
Битрейт : 3500 Кбит/сек
Ширина : 1024 пикселя
Высота : 556 пикселей
Соотношение сторон : 1,85:1
Режим частоты кадров : Постоянный
Частота кадров : 23,976 кадра/сек
Цветовое пространство : YUV
Субдискретизация насыщенности : 4:2:0
Битовая глубина : 8 бит
Тип развёртки : Прогрессивная
Бит/(Пиксели*Кадры) : 0.256
Размер потока : 3,38 Гбайт (55%)
Заголовок : Vavilon.2006.x264.BDRip(AVC)-neni
Библиотека кодирования : x264 core 130 r2273 b3065e6
Настройки программы : cabac=1 / ref=11 / deblock=1:-3:-3 / analyse=0x3:0x113 / me=umh / subme=11 / psy=1 / psy_rd=1.00:0.20 / mixed_ref=1 / me_range=48 / chroma_me=1 / trellis=2 / 8x8dct=1 / cqm=0 / deadzone=21,11 / fast_pskip=0 / chroma_qp_offset=-3 / threads=9 / lookahead_threads=1 / sliced_threads=0 / nr=0 / decimate=0 / interlaced=0 / bluray_compat=0 / constrained_intra=0 / bframes=8 / b_pyramid=2 / b_adapt=2 / b_bias=0 / direct=3 / weightb=1 / open_gop=0 / weightp=2 / keyint=240 / keyint_min=23 / scenecut=40 / intra_refresh=0 / rc_lookahead=40 / rc=2pass / mbtree=0 / bitrate=3500 / ratetol=1.0 / qcomp=0.60 / qpmin=0 / qpmax=69 / qpstep=4 / cplxblur=20.0 / qblur=0.5 / vbv_maxrate=50000 / vbv_bufsize=50000 / nal_hrd=none / ip_ratio=1.40 / pb_ratio=1.30 / aq=1:1.00
Язык : Russian
Default : Да
Forced : Да

Аудио #1
Идентификатор : 2
Формат : AC-3
Формат/Информация : Audio Coding 3
Расширение режима : CM (complete main)
Параметр Endianness формата : Big
Идентификатор кодека : A_AC3
Продолжительность : 2 ч. 23 м.
Вид битрейта : Постоянный
Битрейт : 448 Кбит/сек
Каналы : 6 каналов
Расположение каналов : Front: L C R, Side: L R, LFE
Частота : 48,0 КГц
Битовая глубина : 16 бит
Метод сжатия : С потерями
Размер потока : 460 Мбайт (7%)
Заголовок : дублированный
Язык : Russian
Default : Да
Forced : Да

Аудио #2
Идентификатор : 3
Формат : AC-3
Формат/Информация : Audio Coding 3
Расширение режима : CM (complete main)
Параметр Endianness формата : Big
Идентификатор кодека : A_AC3
Продолжительность : 2 ч. 23 м.
Вид битрейта : Постоянный
Битрейт : 448 Кбит/сек
Каналы : 6 каналов
Расположение каналов : Front: L C R, Side: L R, LFE
Частота : 48,0 КГц
Битовая глубина : 16 бит
Метод сжатия : С потерями
Размер потока : 460 Мбайт (7%)
Заголовок : П.Гланц, И.Королева
Язык : Russian
Default : Нет
Forced : Нет

Аудио #3
Идентификатор : 4
Формат : AC-3
Формат/Информация : Audio Coding 3
Расширение режима : CM (complete main)
Параметр Endianness формата : Big
Идентификатор кодека : A_AC3
Продолжительность : 2 ч. 23 м.
Вид битрейта : Постоянный
Битрейт : 448 Кбит/сек
Каналы : 6 каналов
Расположение каналов : Front: L C R, Side: L R, LFE
Частота : 48,0 КГц
Битовая глубина : 16 бит
Метод сжатия : С потерями
Размер потока : 460 Мбайт (7%)
Заголовок : Ю.Сербин
Язык : Russian
Default : Нет
Forced : Нет

Аудио #4
Идентификатор : 5
Формат : AC-3
Формат/Информация : Audio Coding 3
Расширение режима : CM (complete main)
Параметр Endianness формата : Big
Идентификатор кодека : A_AC3
Продолжительность : 2 ч. 23 м.
Вид битрейта : Постоянный
Битрейт : 448 Кбит/сек
Каналы : 6 каналов
Расположение каналов : Front: L C R, Side: L R, LFE
Частота : 48,0 КГц
Битовая глубина : 16 бит
Метод сжатия : С потерями
Размер потока : 460 Мбайт (7%)
Заголовок : многоголосый (Киномания)
Язык : Russian
Default : Нет
Forced : Нет

Аудио #5
Идентификатор : 6
Формат : AC-3
Формат/Информация : Audio Coding 3
Расширение режима : CM (complete main)
Параметр Endianness формата : Big
Идентификатор кодека : A_AC3
Продолжительность : 2 ч. 23 м.
Вид битрейта : Постоянный
Битрейт : 448 Кбит/сек
Каналы : 6 каналов
Расположение каналов : Front: L C R, Side: L R, LFE
Частота : 48,0 КГц
Битовая глубина : 16 бит
Метод сжатия : С потерями
Размер потока : 460 Мбайт (7%)
Заголовок : (П.Гланц и И.Королёва с DVD Superbit - Специальное Российское Издание)
Язык : Russian
Default : Нет
Forced : Нет

Аудио #6
Идентификатор : 7
Формат : AC-3
Формат/Информация : Audio Coding 3
Расширение режима : CM (complete main)
Параметр Endianness формата : Big
Идентификатор кодека : A_AC3
Продолжительность : 2 ч. 23 м.
Вид битрейта : Постоянный
Битрейт : 448 Кбит/сек
Каналы : 6 каналов
Расположение каналов : Front: L C R, Side: L R, LFE
Частота : 48,0 КГц
Битовая глубина : 16 бит
Метод сжатия : С потерями
Размер потока : 460 Мбайт (7%)
Заголовок : Английский
Язык : English
Default : Нет
Forced : Нет

Текст #1
Идентификатор : 8
Формат : UTF-8
Идентификатор кодека : S_TEXT/UTF8
Идентификатор кодека/Информация : UTF-8 Plain Text
Заголовок : Licence
Язык : Russian
Default : Нет
Forced : Нет

Текст #2
Идентификатор : 9
Формат : UTF-8
Идентификатор кодека : S_TEXT/UTF8
Идентификатор кодека/Информация : UTF-8 Plain Text
Заголовок : Kinomania
Язык : Russian
Default : Нет
Forced : Нет

Текст #3
Идентификатор : 10
Формат : UTF-8
Идентификатор кодека : S_TEXT/UTF8
Идентификатор кодека/Информация : UTF-8 Plain Text
Заголовок : Licence
Язык : Ukrainian
Default : Нет
Forced : Нет

Текст #4
Идентификатор : 11
Формат : UTF-8
Идентификатор кодека : S_TEXT/UTF8
Идентификатор кодека/Информация : UTF-8 Plain Text
Заголовок : Full
Язык : English
Default : Нет
Forced : Нет

Текст #5
Идентификатор : 12
Формат : UTF-8
Идентификатор кодека : S_TEXT/UTF8
Идентификатор кодека/Информация : UTF-8 Plain Text
Заголовок : только для иностранных диалогов
Язык : English
Default : Нет
Forced : Нет

Меню
00:00:00.000 : en:00:00:00.000
00:08:48.361 : en:00:08:48.361
00:14:25.656 : en:00:14:25.656
00:19:36.967 : en:00:19:36.967
00:27:52.588 : en:00:27:52.588
00:30:51.725 : en:00:30:51.725
00:35:39.763 : en:00:35:39.763
00:44:27.081 : en:00:44:27.081
00:50:00.748 : en:00:50:00.748
00:55:53.100 : en:00:55:53.100
01:01:16.673 : en:01:01:16.673
01:05:07.278 : en:01:05:07.278
01:15:23.477 : en:01:15:23.477
01:20:17.646 : en:01:20:17.646
01:30:06.568 : en:01:30:06.568
01:34:32.083 : en:01:34:32.083
01:42:55.336 : en:01:42:55.336
01:44:58.042 : en:01:44:58.042
01:53:13.495 : en:01:53:13.495
01:57:24.496 : en:01:57:24.496
01:59:28.495 : en:01:59:28.495
02:02:09.030 : en:02:02:09.030
02:08:44.717 : en:02:08:44.717
02:16:04.156 : en:02:16:04.156
Релиз от: Rip by



Скачать Вавилон.Babel.(Алехандро.Гонсалес.Иньярриту).[2006.драма.BDRip-AVC].[Dub]+[DVO]ч2+[AVO]+[MVO].torrent без регистрации
Золото ЗОЛОТАЯ РАЗДАЧА! СКАЧАННОЕ НЕ ЗАСЧИТЫВАЕТСЯ! Золото
Дата: Зарегистрирован   [ Тип: внутренний ] Как тут cкачать?
MAGNET ссылка
MAGNET ссылка


Скачать .torrent

17 KB

Статус: проверено DHT
Скачан: торрент - 125 раз, раздача полностью - 170 раз
Размер: 6,19 GB
Оценка:  5 (Голосов: 1)
Поблагодарили: 2
Поделиться ссылкой на эту раздачу с друзьями:
В контактеFacebookОдноклассникиTwitterLivejournalМой МирLiveinternet
 

 
Показать сообщения:    


Вы не можете начинать темы
Вы не можете отвечать на сообщения
Вы не можете редактировать свои сообщения
Вы не можете удалять свои сообщения
Вы не можете голосовать в опросах
Вы не можете прикреплять файлы к сообщениям
Вы можете скачивать файлы