Loading...
Error

Скачать Пираты семи морей: Черная борода / Blackbeard (Кевин Коннор) [2006, драма, приключения, военный, биография, история, HDRip-AVC] [MVO]x2+[Оригинал] торрент без регистрации

 
Статистика раздачи
Размер:  2,92 GB   |    Скачан:  162 раза

Полного источника не было: 21 минута

 
Автор Сообщение

Marsianka

[] 

Информация о фильме
Название: Пираты семи морей: Черная борода
Оригинальное название: Blackbeard
Год выхода: 2006
Жанр: драма, приключения, военный, биография, история
Режиссер: Кевин Коннор
В ролях: Ричард Чемберлен, Стэйси Кич, Ангус Макфэдьен, Стивен Элдер, Николас Фаррелл, Билл Феллоуз, Дон Фергюсон, Марк Амберс, Рэйчел Уорд, Дэвид Уинтерс

О фильме:
Гремят орудия, скрещиваются абордажные сабли, и над захваченным судном взлетает «Веселый Роджер». Самый знаменитый головорез Карибского моря Эдвард Тич по прозвищу «Черная борода» наводит ужас на всех, кто плавает по морям Нового света, включая и «коллег по ремеслу». Он убивает ради репутации, и его репутация становится легендарной.
Британский Королевский военно-морской флот готовится к масштабной операции против пиратов за контроль над морями. Но Черная Борода не собирается капитулировать. Он намерен завладеть неисчислимыми богатствами легендарного капитана Кидда, захороненными на острове Стервятников



Страна: США
Студия: Hallmark Entertainment, Larry Levinson Productions, Living Films
Продолжительность: 01:25:03 + 01:25:05
Перевод: 1. Профессиональный многоголосый
2. Профессиональный многоголосый (Селена Интернешнл)

Файл
Кодек: AVC
Качество: HDRip-AVC
Видео:
серия 1: 1024x576 (16:9), 1876 kbps, 23,976 fps, 0.133 Bits/(Pixel*Frame) серия2: 1024x576 (16:9), 1875 kbps, 23,976 fps, 0.133 Bits/(Pixel*Frame)
AC3, 48 kHz, 2 ch, 192 kbps - Профессиональный многоголосый
AC3, 48 kHz, 2 ch, 192 kbps - Профессиональный многоголосый (Селена Интернешнл)
AC3, 48 kHz, 2 ch, 192 kbps - Оригинальная озвучка (english)
Субтитры: Нет
Автор рипа: _Bathory_
General
Unique ID : 230436374480527951520036311003745835844 (0xAD5C6E6F7F35FC4394E480A756355B44)
Complete name : G:Piraty_7_morei_1-2MKVPiraty_7_morei_1.HDRip_by_Bathory.mkv
Format : Matroska
Format version : Version 2
File size : 1.46 GiB
Duration : 1h 25mn
Overall bit rate : 2 454 Kbps
Encoded date : UTC 2013-11-22 11:11:36
Writing application : mkvmerge v6.2.0 ('Promised Land') built on Apr 28 2013 12:22:01
Writing library : libebml v1.3.0 + libmatroska v1.4.0

Video
ID : 1
Format : AVC
Format/Info : Advanced Video Codec
Format profile : High@L4.1
Format settings, CABAC : Yes
Format settings, ReFrames : 12 frames
Codec ID : V_MPEG4/ISO/AVC
Duration : 1h 25mn
Bit rate : 1 876 Kbps
Width : 1 024 pixels
Height : 576 pixels
Display aspect ratio : 16:9
Frame rate mode : Constant
Frame rate : 23.976 fps
Color space : YUV
Chroma subsampling : 4:2:0
Bit depth : 8 bits
Scan type : Progressive
Bits/(Pixel*Frame) : 0.133
Stream size : 1.09 GiB (75%)
Writing library : x264 core 133 r2334 a3ac64b
Encoding settings : cabac=1 / ref=12 / deblock=1:-2:-2 / analyse=0x3:0x133 / me=umh / subme=11 / psy=1 / psy_rd=1.18:0.14 / mixed_ref=1 / me_range=32 / chroma_me=1 / trellis=2 / 8x8dct=1 / cqm=0 / deadzone=21,11 / fast_pskip=0 / chroma_qp_offset=-3 / threads=6 / lookahead_threads=1 / sliced_threads=0 / nr=0 / decimate=1 / interlaced=0 / bluray_compat=0 / constrained_intra=0 / bframes=11 / b_pyramid=2 / b_adapt=2 / b_bias=0 / direct=3 / weightb=1 / open_gop=0 / weightp=2 / keyint=240 / keyint_min=23 / scenecut=40 / intra_refresh=0 / rc_lookahead=60 / rc=2pass / mbtree=1 / bitrate=1876 / ratetol=1.0 / qcomp=0.60 / qpmin=0 / qpmax=69 / qpstep=4 / cplxblur=20.0 / qblur=0.5 / vbv_maxrate=62500 / vbv_bufsize=78125 / nal_hrd=none / ip_ratio=1.40 / aq=1:1.00
Default : Yes
Forced : No

Audio #1
ID : 2
Format : AC-3
Format/Info : Audio Coding 3
Mode extension : CM (complete main)
Format settings, Endianness : Big
Codec ID : A_AC3
Duration : 1h 25mn
Bit rate mode : Constant
Bit rate : 192 Kbps
Channel count : 2 channels
Channel positions : Front: L R
Sampling rate : 48.0 KHz
Bit depth : 16 bits
Compression mode : Lossy
Stream size : 117 MiB (8%)
Language : Russian
Default : Yes
Forced : No

Audio #2
ID : 3
Format : AC-3
Format/Info : Audio Coding 3
Mode extension : CM (complete main)
Format settings, Endianness : Big
Codec ID : A_AC3
Duration : 1h 25mn
Bit rate mode : Constant
Bit rate : 192 Kbps
Channel count : 2 channels
Channel positions : Front: L R
Sampling rate : 48.0 KHz
Bit depth : 16 bits
Compression mode : Lossy
Stream size : 117 MiB (8%)
Language : Russian
Default : No
Forced : No

Audio #3
ID : 4
Format : AC-3
Format/Info : Audio Coding 3
Mode extension : CM (complete main)
Format settings, Endianness : Big
Codec ID : A_AC3
Duration : 1h 25mn
Bit rate mode : Constant
Bit rate : 192 Kbps
Channel count : 2 channels
Channel positions : Front: L R
Sampling rate : 48.0 KHz
Bit depth : 16 bits
Compression mode : Lossy
Stream size : 117 MiB (8%)
Language : English
Default : No
Forced : No
General
Unique ID : 218775869711214055486143587053669658981 (0xA496B329EF376A8DAE8C711AEA8B3165)
Complete name : G:Piraty_7_morei_1-2MKVPiraty_7_morei_2.HDRip_by_Bathory.mkv
Format : Matroska
Format version : Version 2
File size : 1.46 GiB
Duration : 1h 25mn
Overall bit rate : 2 453 Kbps
Encoded date : UTC 2013-11-23 02:03:41
Writing application : mkvmerge v6.2.0 ('Promised Land') built on Apr 28 2013 12:22:01
Writing library : libebml v1.3.0 + libmatroska v1.4.0

Video
ID : 1
Format : AVC
Format/Info : Advanced Video Codec
Format profile : High@L4.1
Format settings, CABAC : Yes
Format settings, ReFrames : 12 frames
Codec ID : V_MPEG4/ISO/AVC
Duration : 1h 25mn
Bit rate : 1 875 Kbps
Width : 1 024 pixels
Height : 576 pixels
Display aspect ratio : 16:9
Frame rate mode : Constant
Frame rate : 23.976 fps
Color space : YUV
Chroma subsampling : 4:2:0
Bit depth : 8 bits
Scan type : Progressive
Bits/(Pixel*Frame) : 0.133
Stream size : 1.09 GiB (75%)
Writing library : x264 core 133 r2334 a3ac64b
Encoding settings : cabac=1 / ref=12 / deblock=1:-2:-2 / analyse=0x3:0x133 / me=umh / subme=11 / psy=1 / psy_rd=1.18:0.14 / mixed_ref=1 / me_range=32 / chroma_me=1 / trellis=2 / 8x8dct=1 / cqm=0 / deadzone=21,11 / fast_pskip=0 / chroma_qp_offset=-3 / threads=6 / lookahead_threads=1 / sliced_threads=0 / nr=0 / decimate=1 / interlaced=0 / bluray_compat=0 / constrained_intra=0 / bframes=11 / b_pyramid=2 / b_adapt=2 / b_bias=0 / direct=3 / weightb=1 / open_gop=0 / weightp=2 / keyint=240 / keyint_min=23 / scenecut=40 / intra_refresh=0 / rc_lookahead=60 / rc=2pass / mbtree=1 / bitrate=1875 / ratetol=1.0 / qcomp=0.60 / qpmin=0 / qpmax=69 / qpstep=4 / cplxblur=20.0 / qblur=0.5 / vbv_maxrate=62500 / vbv_bufsize=78125 / nal_hrd=none / ip_ratio=1.40 / aq=1:1.00
Default : Yes
Forced : No

Audio #1
ID : 2
Format : AC-3
Format/Info : Audio Coding 3
Mode extension : CM (complete main)
Format settings, Endianness : Big
Codec ID : A_AC3
Duration : 1h 25mn
Bit rate mode : Constant
Bit rate : 192 Kbps
Channel count : 2 channels
Channel positions : Front: L R
Sampling rate : 48.0 KHz
Bit depth : 16 bits
Compression mode : Lossy
Stream size : 117 MiB (8%)
Language : Russian
Default : Yes
Forced : No

Audio #2
ID : 3
Format : AC-3
Format/Info : Audio Coding 3
Mode extension : CM (complete main)
Format settings, Endianness : Big
Codec ID : A_AC3
Duration : 1h 25mn
Bit rate mode : Constant
Bit rate : 192 Kbps
Channel count : 2 channels
Channel positions : Front: L R
Sampling rate : 48.0 KHz
Bit depth : 16 bits
Compression mode : Lossy
Stream size : 117 MiB (8%)
Language : Russian
Default : No
Forced : No

Audio #3
ID : 4
Format : AC-3
Format/Info : Audio Coding 3
Mode extension : CM (complete main)
Format settings, Endianness : Big
Codec ID : A_AC3
Duration : 1h 25mn
Bit rate mode : Constant
Bit rate : 192 Kbps
Channel count : 2 channels
Channel positions : Front: L R
Sampling rate : 48.0 KHz
Bit depth : 16 bits
Compression mode : Lossy
Stream size : 117 MiB (8%)
Language : English
Default : No
Forced : No



Скачать Пираты.семи.морей.Черная.борода.Blackbeard.(Кевин.Коннор).[2006.драма.приключения.военный.биография.история.HDRip-AVC].[MVO]x2+[Оригинал].torrent без регистрации
Золото ЗОЛОТАЯ РАЗДАЧА! СКАЧАННОЕ НЕ ЗАСЧИТЫВАЕТСЯ! Золото
Дата: Зарегистрирован   [ Тип: внутренний ] Как тут cкачать?
MAGNET ссылка
MAGNET ссылка


Скачать .torrent

15 KB

Статус: проверено DHT
Скачан: торрент - 162 раз, раздача полностью - 88 раз
Размер: 2,92 GB
Оценка:  - (Голосов: 0)
Поблагодарили: 2
Поделиться ссылкой на эту раздачу с друзьями:
В контактеFacebookОдноклассникиTwitterLivejournalМой МирLiveinternet
 

 
Показать сообщения:    


Вы не можете начинать темы
Вы не можете отвечать на сообщения
Вы не можете редактировать свои сообщения
Вы не можете удалять свои сообщения
Вы не можете голосовать в опросах
Вы не можете прикреплять файлы к сообщениям
Вы можете скачивать файлы