Loading...
Error

Скачать Анатомия страсти / Анатомия Грей / Grey's Anatomy (10x01-12) (Роб Корн) [2012, драма, WEB-DL] [720p] [Sub] торрент без регистрации

 
Статистика раздачи
Размер:  8,42 GB   |    Скачан:  3906 раз
Сидов:  1  [  0 KB/s  ]  
 
Автор Сообщение

МихаНЕзатор

[] 

Анатомия Грей / Анатомия Страсти / Grey's Anatomy


Год выпуска: 2013
Страна: США
Жанр: Драма
Продолжительность: 00:44:00
Перевод: Субтитры
СубтитрыРусские (FanatoMy Team), Английские
Режиссёр: Роб Корн

В ролях: Эллен Помпео, Сандра О, Джастин Чэмберс, Патрик Дэмпси, Сара Рамирез, Джеймс Пикенс мл., Чэндра Уилсон, Кевин МакКидд, Джессика Кэпшоу и др.

Описание:
Продолжение знаменитой медицинской драмы о работе и личных отношениях хирургов сиэтлской больницы. Каждый день наполнен болью и счастьем, ссорами и примирениями, сложными дилеммами и необходимостью принять моментальное решение от которого зависит жизнь человека. В центре сюжета хирург - Мередит...



Качество: WEB-DL 720p
Контейнер: MKV
Видео кодек: H.264
Аудио кодек: AC3
Видео: 1280x720 (16:9), 23.976 fps, ~4000 kbps, ~0.18 bit/pixel
Аудио: AC3, 48 kHz, 6 ch, ~384 kbps

АНОНСЫ ПОПУЛЯРНЫХ РАЗДАЧ


18.12.2013 г. торент обновлён, добавлена 12-я серия!

General
Unique ID : 177416947889506943621634878545787133032 (0x857942E1D192F1B59AA93D65341C9C68)
Complete name : D:DownloadsGrey's Anatomy S10 WEB-DL 720pGreys.Anatomy.S10E01.Seal.Our.Fate.720p.WEB-DL.DD5.1.H.264-NTb.mkv
Format : Matroska
Format version : Version 4 / Version 2
File size : 1.34 GiB
Duration : 43mn 4s
Overall bit rate : 4 458 Kbps
Encoded date : UTC 2013-09-27 15:07:45
Writing application : mkvmerge v6.4.1 ('Omega Point') built on Sep 16 2013 22:05:10
Writing library : libebml v1.3.0 + libmatroska v1.4.1

Video
ID : 1
Format : AVC
Format/Info : Advanced Video Codec
Format profile : High@L3.1
Format settings, CABAC : No
Format settings, ReFrames : 2 frames
Codec ID : V_MPEG4/ISO/AVC
Duration : 43mn 4s
Bit rate : 3 985 Kbps
Width : 1 280 pixels
Height : 720 pixels
Display aspect ratio : 16:9
Frame rate mode : Constant
Frame rate : 23.976 fps
Color space : YUV
Chroma subsampling : 4:2:0
Bit depth : 8 bits
Scan type : Progressive
Bits/(Pixel*Frame) : 0.180
Stream size : 1.20 GiB (89%)
Language : English
Default : Yes
Forced : No
Color primaries : BT.709
Transfer characteristics : BT.709
Matrix coefficients : BT.709

Audio
ID : 2
Format : AC-3
Format/Info : Audio Coding 3
Mode extension : CM (complete main)
Format settings, Endianness : Big
Codec ID : A_AC3
Duration : 43mn 4s
Bit rate mode : Constant
Bit rate : 384 Kbps
Channel(s) : 6 channels
Channel positions : Front: L C R, Side: L R, LFE
Sampling rate : 48.0 KHz
Bit depth : 16 bits
Compression mode : Lossy
Stream size : 118 MiB (9%)
Language : English
Default : Yes
Forced : No

При каждом добавлении создаётся новый торрент. Чтобы начать закачку новой серии, необходимо сделать следующее:

(1) остановить скачивание,
(2) удалить старый торрент у себя из клиента (старые серии удалять не надо),
(3) скачать новый торрент и запустить его в клиенте вместо старого, при этом указать клиенту путь в старую папку куда и должно происходить скачивание новых серий.

Ваш клиент при этом должен произвести хеширование (проверку) старой папки (если не производит сам - помогите ему сделать это), и будет докачивать только те серии которых у вас ещё нет. Старые серии при этом не удаляются, а продолжают раздаваться! Eсли вы уже удалили старые серии, то предотвратить повторную закачку старых серий можно, отжав галочку в соответствующих местах при запуске нового торрента.



Скачать Анатомия.страсти.Анатомия.Грей.Grey's.Anatomy.(10x01-12).(Роб.Корн).[2012.драма.WEB-DL].[720p].[Sub].torrent без регистрации
Золото ЗОЛОТАЯ РАЗДАЧА! СКАЧАННОЕ НЕ ЗАСЧИТЫВАЕТСЯ! Золото
Дата: Зарегистрирован   [ Тип: внутренний ] Как тут cкачать?
MAGNET ссылка
MAGNET ссылка


Скачать .torrent

23 KB

Статус: проверено DHT
Скачан: торрент - 3906 раз, раздача полностью - 2 раз
Размер: 8,42 GB
Оценка:  - (Голосов: 0)
Поблагодарили: 0
Поделиться ссылкой на эту раздачу с друзьями:
В контактеFacebookОдноклассникиTwitterLivejournalМой МирLiveinternet
 

 

МихаНЕзатор

[] 

Раздача обновлена
 
Показать сообщения:    


Вы не можете начинать темы
Вы не можете отвечать на сообщения
Вы не можете редактировать свои сообщения
Вы не можете удалять свои сообщения
Вы не можете голосовать в опросах
Вы не можете прикреплять файлы к сообщениям
Вы можете скачивать файлы