Loading...
Error

Скачать Дерево Джошуа / Армия Одиночки / Переступив Черту / Army Of One / Joshua Tree (Вик Армстронг) [1993, боевик, триллер, драма, криминал, детектив, приключения, BDRip-AVC] [Dub]+[MVO]x4+[AVO]+[DVO]+[Sub] торрент без регистрации

 
Статистика раздачи
Размер:  3,39 GB   |    Скачан:  129 раз
Сидов:  1  [  0 KB/s  ]  
 
Автор Сообщение

Marsianka

[] 

Информация о фильме
Название: Дерево Джошуа / Армия одиночки / Переступив черту
Оригинальное название: Joshua Tree / Army of One
Год выхода: 1993
Жанр: боевик, триллер, драма, криминал, детектив, приключения
Режиссер: Вик Армстронг
В ролях: Дольф Лундгрен, Джордж Сигал, Кристиан Альфонсо, Джеффри Льюис, Бо Старр, Мишель Филлипс, Мэтт Батталья, Берт Ремсен, Майкл Пол Чан, Ханди Александер, Маркус Браун, Ник Чинланд, Кен Фори, Эдвард Стоун, Ронди Рид, Анита Брабэц, Джейсон Росс-Эйзикив, Чарли Холлидэй, Джимми Вудард, Тони Эппер, Кен Блейзер, Виктор Кинтеро, Пи Ви Пьемонт, Сигал Дайэмант, Ларри Маркс, Питер Спеллос, Мэри Ингерсолл, Тим Де Зарн, Ронни Ронделл мл., Джеффри Дж. Дашнау, Дэнни Вайнандс, Дэна Дрю Эвенсон, Лила Финн, Уолли Роуз, Денвер Маттсон, Анат Тополь

О фильме:
Автогонщик Сэнти обвинен в убийстве полицейского. Это дело рук продажного копа Сэверенса, работающего на мафию. Сэнти получил серьезное ранение, но выжил. Его осудили на пожизненное заключение. Охранники должны были застрелить его якобы при попытке к бегству, но ему удалось скрыться. Спасаясь от преследователей, он берет в заложницы красотку, не подозревая, что она помощник шерифа. Рита девица не из слабых. Она делает попытку сбежать, но ей это не удается. Сэнти сам отпускает ее, когда добирается до ранчо своего врага. Но тут уж Рита решает докопаться до сути происходящего...



Страна: США
Студия: Epic Productions, Horned Toad Productions, Stone Group Pictures, Vision International, Zilex N.V.
Продолжительность: 01:42:12
Перевод: Дублированный, профессиональный (многоголосый закадровый), авторский (одноголосый закадровый)

Файл
Кодек: h.264
Качество: BDRip-AVC
Видео: 3017 Кбит/с, 1024х434, 23.976 кадр/с
1: Русский (AC3, 2 ch, 192 Кбит/с) Дублированный [Хлопушка]
2: Русский (AC3, 2 ch, 192 Кбит/с) Профессиональный многоголосый [ОРТ]
3: Русский (AC3, 2 ch, 192 Кбит/с) Авторский одноголосый [Андрей Гаврилов]
4: Английский (AC3, 6 ch, 384 Кбит/с)
Отдельно:
5: Русский (AC3, 2 ch, 192 Кбит/с) Профессиональный многоголосый [Лазер-Видео]
6: Русский (AC3, 2 ch, 192 Кбит/с) Профессиональный многоголосый [НТВ+]
7: Русский (AC3, 2 ch, 192 Кбит/с) Профессиональный многоголосый [Канал "Россия"]
8: Украинский (AC3, 2 ch, 192 Кбит/с) Профессиональный двухголосый [Канал "2+2"]

Субтитры: Английские

------------------------------------------------------------------
x264 [info]: frame I:1231 Avg QP:18.37 size: 72709
x264 [info]: frame P:33727 Avg QP:21.14 size: 27417
x264 [info]: frame B:111946 Avg QP:22.52 size: 11565
------------------------------------------------------------------

Полное имя : Derevo.Joshua.1993.x264.BDRip.(AVC).0ptimusDerevo.Joshua.1993.x264.BDRip.(AVC).0ptimus.mkv
Формат : Matroska
Версия формата : Version 4 / Version 2
Размер файла : 2,84 Гбайт
Продолжительность : 1 ч. 42 м.
Общий поток : 3975 Кбит/сек
Название фильма : Дерево Джошуа | Joshua Tree [1993] -=BDRip (AVC) by 0ptimus=-
Дата кодирования : UTC 2013-11-20 14:55:49
Программа кодирования : mkvmerge v6.1.0 ('Old Devil') built on Mar 2 2013 14:32:37
Библиотека кодирования : libebml v1.3.0 + libmatroska v1.4.0

Видео
Идентификатор : 1
Формат : AVC
Формат/Информация : Advanced Video Codec
Профиль формата : High@L4.1
Параметр CABAC формата : Да
Параметр ReFrames формата : 10 кадров
Идентификатор кодека : V_MPEG4/ISO/AVC
Продолжительность : 1 ч. 42 м.
Битрейт : 3017 Кбит/сек
Ширина : 1024 пикселя
Высота : 434 пикселя
Соотношение сторон : 2,35:1
Частота кадров : 23,976 кадра/сек
Цветовое пространство : YUV
Субдискретизация насыщенности : 4:2:0
Битовая глубина : 8 бит
Тип развёртки : Прогрессивная
Бит/(Пиксели*Кадры) : 0.283
Размер потока : 2,10 Гбайт (74%)
Заголовок : Rip by 0ptimus
Библиотека кодирования : x264 core 130 r2273 b3065e6
Настройки программы : cabac=1 / ref=10 / deblock=1:-3:-3 / analyse=0x3:0x113 / me=umh / subme=11 / psy=1 / psy_rd=1.00:0.20 / mixed_ref=1 / me_range=32 / chroma_me=1 / trellis=2 / 8x8dct=1 / cqm=0 / deadzone=21,11 / fast_pskip=0 / chroma_qp_offset=-3 / threads=3 / lookahead_threads=1 / sliced_threads=0 / nr=0 / decimate=0 / interlaced=0 / bluray_compat=0 / constrained_intra=0 / bframes=9 / b_pyramid=2 / b_adapt=2 / b_bias=0 / direct=3 / weightb=1 / open_gop=0 / weightp=2 / keyint=240 / keyint_min=23 / scenecut=40 / intra_refresh=0 / rc_lookahead=40 / rc=2pass / mbtree=0 / bitrate=3017 / ratetol=1.0 / qcomp=0.60 / qpmin=0 / qpmax=69 / qpstep=4 / cplxblur=20.0 / qblur=0.5 / vbv_maxrate=50000 / vbv_bufsize=50000 / nal_hrd=none / ip_ratio=1.40 / pb_ratio=1.30 / aq=1:1.00
Язык : English

Аудио #1
Идентификатор : 2
Формат : AC-3
Формат/Информация : Audio Coding 3
Расширение режима : CM (complete main)
Идентификатор кодека : A_AC3
Продолжительность : 1 ч. 42 м.
Вид битрейта : Постоянный
Битрейт : 192 Кбит/сек
Каналы : 2 канала
Расположение каналов : Front: L R
Частота : 48,0 КГц
Битовая глубина : 16 бит
Метод сжатия : С потерями
Размер потока : 140 Мбайт (5%)
Заголовок : Дублированный [Хлопушка] AC3 2.0 @ 192 kbps
Язык : Russian

Аудио #2
Идентификатор : 3
Формат : AC-3
Формат/Информация : Audio Coding 3
Расширение режима : CM (complete main)
Идентификатор кодека : A_AC3
Продолжительность : 1 ч. 42 м.
Вид битрейта : Постоянный
Битрейт : 192 Кбит/сек
Каналы : 2 канала
Расположение каналов : Front: L R
Частота : 48,0 КГц
Битовая глубина : 16 бит
Метод сжатия : С потерями
Размер потока : 140 Мбайт (5%)
Заголовок : Многоголосый закадровый [ОРТ] AC3 2.0 @ 192 kbps
Язык : Russian

Аудио #3
Идентификатор : 4
Формат : AC-3
Формат/Информация : Audio Coding 3
Расширение режима : CM (complete main)
Идентификатор кодека : A_AC3
Продолжительность : 1 ч. 42 м.
Вид битрейта : Постоянный
Битрейт : 192 Кбит/сек
Каналы : 2 канала
Расположение каналов : Front: L R
Частота : 48,0 КГц
Битовая глубина : 16 бит
Метод сжатия : С потерями
Размер потока : 140 Мбайт (5%)
Заголовок : Авторский [Андрей Гаврилов] AC3 2.0 @ 192 kbps
Язык : Russian

Аудио #4
Идентификатор : 5
Формат : AC-3
Формат/Информация : Audio Coding 3
Расширение режима : CM (complete main)
Идентификатор кодека : A_AC3
Продолжительность : 1 ч. 42 м.
Вид битрейта : Постоянный
Битрейт : 384 Кбит/сек
Каналы : 6 каналов
Расположение каналов : Front: L C R, Side: L R, LFE
Частота : 48,0 КГц
Битовая глубина : 16 бит
Метод сжатия : С потерями
Размер потока : 281 Мбайт (10%)
Заголовок : AC3 5.1 @ 384 kbps
Язык : English

Текст
Идентификатор : 6
Формат : UTF-8
Идентификатор кодека : S_TEXT/UTF8
Идентификатор кодека/Информация : UTF-8 Plain Text
Язык : English

Меню
00:00:00.000 : en:00:00:00.000
00:08:21.501 : en:00:08:21.501
00:18:03.708 : en:00:18:03.708
00:27:31.275 : en:00:27:31.275
00:36:14.172 : en:00:36:14.172
00:42:30.173 : en:00:42:30.173
00:48:57.560 : en:00:48:57.560
01:04:44.506 : en:01:04:44.506
01:12:19.961 : en:01:12:19.961
01:22:28.569 : en:01:22:28.569
01:30:32.052 : en:01:30:32.052
01:36:42.422 : en:01:36:42.422
Релиз от:



Скачать Дерево.Джошуа.Армия.Одиночки.Переступив.Черту.Army.Of.One.Joshua.Tree.(Вик.Армстронг).[1993.боевик.триллер.драма.криминал.детектив.приключения.BDRip-AVC].[Dub]+[MVO]x4+[AVO]+[DVO]+[Sub].torrent без регистрации
Золото ЗОЛОТАЯ РАЗДАЧА! СКАЧАННОЕ НЕ ЗАСЧИТЫВАЕТСЯ! Золото
Дата: Зарегистрирован   [ Тип: внутренний ] Как тут cкачать?
MAGNET ссылка
MAGNET ссылка


Скачать .torrent

18 KB

Статус: проверено DHT
Скачан: торрент - 129 раз, раздача полностью - 3 раз
Размер: 3,39 GB
Оценка:  5 (Голосов: 1)
Поблагодарили: 1
Поделиться ссылкой на эту раздачу с друзьями:
В контактеFacebookОдноклассникиTwitterLivejournalМой МирLiveinternet
 

 
Показать сообщения:    


Вы не можете начинать темы
Вы не можете отвечать на сообщения
Вы не можете редактировать свои сообщения
Вы не можете удалять свои сообщения
Вы не можете голосовать в опросах
Вы не можете прикреплять файлы к сообщениям
Вы можете скачивать файлы