Loading...
Error

Скачать Правосудие одиночки / One Good Cop (Хейвуд Гулд) [1991, боевик, триллер, драма, криминал, BDRip] [Dub]+[Sub] торрент без регистрации

 
Статистика раздачи
Размер:  1,68 GB   |    Скачан:  93 раза
Сидов:  1  [  0 KB/s  ]   Личеров:  1  [  0 KB/s  ]  
 
Автор Сообщение

Marsianka

[] 

Название: Правосудие одиночки
Оригинальное название: One Good Cop
Год выпуска: 1991
Жанр: боевик, триллер, драма, криминал
Выпущено: США, Hollywood Pictures, Silver Screen Partners IV
Режиссер: Хейвуд Гулд
В ролях: Майкл Китон, Рене Руссо, Энтони ЛаПалья, Кевин Конуэй, Рэйчел Тикотин, Тони Плана, Бенджамин Брэтт, Чарлэйн Вудард, Грейс Джонстон

О фильме: Друг и коллега Арти погибает во время спецоперации, и служитель закона решает взять под свою опеку троих детей убитого друга. Но его семейный бюджет не приспособлен для таких расходов. Тогда Арти решает взять деньги у тех, кто их не заслуживает. Первым на прицеле оказался крупный наркодилер. И если можно уйти от правосудия в зале суда, то от правосудия полицейского не уйдёт никто.



Качество: BDRip
Видео: XviD, 1900 Kбит/с, 720x384
Аудио: Русский, английский (AC3, 2 ch, 192 Кбит/с)
Размер: 1.68 ГБ
Продолжительность: 01:44:38
Перевод: Дублированный
Субтитры: Английские

Исходник: StarbirS (Кинозал)

Сравнение с исходником
Общее
Полное имя : E:VideoPravosudie.odinochki.1991.XviD.BDRipPravosudie.odinochki.1991.eng.srt
Формат : SubRip
Размер файла : 92,1 Кбайт

Текст
Формат : SubRip
Метод сжатия : Без потерь

Общее
Полное имя : E:VideoPravosudie.odinochki.1991.XviD.BDRipPravosudie.odinochki.1991.Original.eng.ac3
Формат : AC-3
Формат/Информация : Audio Coding 3
Размер файла : 144 Мбайт
Продолжительность : 1 ч. 44 м.
Режим общего битрейта : Постоянный
Общий поток : 192 Кбит/сек

Аудио
Формат : AC-3
Формат/Информация : Audio Coding 3
Расширение режима : CM (complete main)
Параметр Endianness формата : Big
Продолжительность : 1 ч. 44 м.
Вид битрейта : Постоянный
Битрейт : 192 Кбит/сек
Каналы : 2 канала
Расположение каналов : Front: L R
Частота : 48,0 КГц
Битовая глубина : 16 бит
Метод сжатия : С потерями
Размер потока : 144 Мбайт (100%)

Общее
Полное имя : E:VideoPravosudie.odinochki.1991.XviD.BDRipPravosudie.odinochki.1991.XviD.BDRip.avi
Формат : AVI
Формат/Информация : Audio Video Interleave
Размер файла : 1,54 Гбайт
Продолжительность : 1 ч. 44 м.
Общий поток : 2102 Кбит/сек
Программа кодирования : VirtualDubMod 1.5.10.2 (build 2540/release)
Библиотека кодирования : VirtualDubMod build 2540/release

Видео
Идентификатор : 0
Формат : MPEG-4 Visual
Профиль формата : Advanced Simple@L5
Параметр BVOP формата : 1
Параметр QPel формата : Нет
Параметр GMC формата : Без точки перехода
Параметр матрицы формата : Default (H.263)
Режим смешивания : Сжатый битовый поток
Идентификатор кодека : XVID
Идентификатор кодека/Подсказка : XviD
Продолжительность : 1 ч. 44 м.
Битрейт : 1900 Кбит/сек
Ширина : 720 пикселей
Высота : 384 пикселя
Соотношение сторон : 1,85:1
Частота кадров : 23,976 кадра/сек
Цветовое пространство : YUV
Субдискретизация насыщенности : 4:2:0
Битовая глубина : 8 бит
Тип развёртки : Прогрессивная
Метод сжатия : С потерями
Бит/(Пиксели*Кадры) : 0.287
Размер потока : 1,39 Гбайт (90%)
Библиотека кодирования : XviD 1.2.1 (UTC 2008-12-04)

Аудио
Идентификатор : 1
Формат : AC-3
Формат/Информация : Audio Coding 3
Расширение режима : CM (complete main)
Параметр Endianness формата : Big
Идентификатор кодека : 2000
Продолжительность : 1 ч. 44 м.
Вид битрейта : Постоянный
Битрейт : 192 Кбит/сек
Каналы : 2 канала
Расположение каналов : Front: L R
Частота : 48,0 КГц
Битовая глубина : 16 бит
Метод сжатия : С потерями
Размер потока : 144 Мбайт (9%)
Выравнивание : Разделение по промежуткам
Продолжительность промежутка : 42 мс. (1,00 видеокадр)
Время предзагрузки промежутка : 500 мс.



Скачать Правосудие.одиночки.One.Good.Cop.(Хейвуд.Гулд).[1991.боевик.триллер.драма.криминал.BDRip].[Dub]+[Sub].torrent без регистрации
Золото ЗОЛОТАЯ РАЗДАЧА! СКАЧАННОЕ НЕ ЗАСЧИТЫВАЕТСЯ! Золото
Дата: Зарегистрирован   [ Тип: внутренний ] Как тут cкачать?
MAGNET ссылка
MAGNET ссылка


Скачать .torrent

17 KB

Статус: проверено DHT
Скачан: торрент - 93 раз, раздача полностью - 0 раз
Размер: 1,68 GB
Оценка:  - (Голосов: 0)
Поблагодарили: 0
Поделиться ссылкой на эту раздачу с друзьями:
В контактеFacebookОдноклассникиTwitterLivejournalМой МирLiveinternet
 

 
Показать сообщения:    


Вы не можете начинать темы
Вы не можете отвечать на сообщения
Вы не можете редактировать свои сообщения
Вы не можете удалять свои сообщения
Вы не можете голосовать в опросах
Вы не можете прикреплять файлы к сообщениям
Вы можете скачивать файлы