Loading...
Error

Скачать Мост / Bron / Broen (сезон 02) (Хенрик Георгсон, Шарлотта Зилинг, Лиза Сиве) [2013, криминальный триллер, полицейский детектив, мистическая драма, HDTVRip] [MVO (Amedia)] торрент без регистрации

 
Статистика раздачи
Размер:  9,96 GB   |    Скачан:  167 раз
Сидов:  1  [  0 KB/s  ]  
 
Автор Сообщение

МихаНЕзатор

[] 

Информация о фильме
Название: Мост
Оригинальное название: Bron / Broen
Год выхода: 2013
Жанр: триллер, криминал, детектив
Режиссер: Хенрик Георгссон, Мортен Арнфред, Шарлотта Зилинг

В ролях: София Хелин, Ким Бодниа, Даг Мальмберг, Рафаэль Петтерссон, Эмиль Бирк Хартманн, Аннет Линдбёк, Магнус Креппе, Сара Боберг, Ларс Симонсен, ДаниэльАдольфссон, Михаэль Моритцен

О фильме: На самой середине моста Орезунд, связывающего Швецию с Данией, происходит краткое отключение электроэнергии. Появление света знаменует собой появление незнакомого объекта: тело женщины, обращенное головой к Швеции, ногами к Дании. Чья полиция должна руководить расследованием убийства подброшенной за несколько минут мертвой женщины?



Страна: Швеция, Дания
Продолжительность: ~ 00:59:00 серия
Перевод: Профессиональный многоголосый закадровый - Amedia

Файл
Кодек: XviD / AC3
Качество: HDTVRip
Видео: 720x400 (1.80:1), 25 fps, XviD build 65 ~2077 kbps avg, 0.29
Звук:
Аудио rus: 48 kHz, AC3 Dolby Digital, 2/0 (L,R) ch, ~192 kbps
Аудио swe: 48 kHz, AC3 Dolby Digital, 2/0 (L,R) ch, ~192 kbps

06.12.2013 г. торент обновлён, добавлена 10-я серия!
Полное имя : F:СериалраздачаBroen Season 2 CasStudioBroen.s02e01.rus.swe.CasStudio.avi
Формат : AVI
Формат/Информация : Audio Video Interleave
Размер файла : 1007 Мбайт
Продолжительность : 57 м.
Общий поток : 2450 Кбит/сек
Программа кодирования : VirtualDubMod 1.5.10.2 (build 2540/release)
Библиотека кодирования : VirtualDubMod build 2540/release

Видео
Идентификатор : 0
Формат : MPEG-4 Visual
Профиль формата : Advanced Simple@L5
Параметр BVOP формата : 1
Параметр QPel формата : Нет
Параметр GMC формата : Без точки перехода
Параметр матрицы формата : Default (MPEG)
Идентификатор кодека : XVID
Идентификатор кодека/Подсказка : XviD
Продолжительность : 57 м.
Битрейт : 2051 Кбит/сек
Ширина : 720 пикс.
Высота : 400 пикс.
Соотношение сторон : 16:9
Частота кадров : 25,000 кадр/сек
Цветовое пространство : YUV
Подвыборка цветности : 4:2:0
Битовая глубина : 8 бит
Тип развёртки : Прогрессивная
Метод сжатия : С потерями
Бит/(Пиксели*Кадры) : 0.285
Размер потока : 844 Мбайт (84%)
Библиотека кодирования : XviD 65

Аудио #1
Идентификатор : 1
Формат : AC-3
Формат/Информация : Audio Coding 3
Расширение режима : CM (complete main)
Идентификатор кодека : 2000
Продолжительность : 57 м.
Вид битрейта : Постоянный
Битрейт : 192 Кбит/сек
Каналы : 2 канала
Расположение каналов : Front: L R
Частота : 48,0 КГц
Битовая глубина : 16 бит
Метод сжатия : С потерями
Размер потока : 79,0 Мбайт (8%)
Выравнивание : Разделение по промежуткам
Продолжительность промежутка : 40 мс. (1,00 видеокадр)
Время предзагрузки промежутка : 500 ms

Аудио #2
Идентификатор : 2
Формат : AC-3
Формат/Информация : Audio Coding 3
Расширение режима : CM (complete main)
Идентификатор кодека : 2000
Продолжительность : 57 м.
Вид битрейта : Постоянный
Битрейт : 192 Кбит/сек
Каналы : 2 канала
Расположение каналов : Front: L R
Частота : 48,0 КГц
Битовая глубина : 16 бит
Метод сжатия : С потерями
Размер потока : 79,0 Мбайт (8%)
Выравнивание : Разделение по промежуткам
Продолжительность промежутка : 40 мс. (1,00 видеокадр)
Время предзагрузки промежутка : 500 ms



Скачать Мост.Bron.Broen.(сезон.02).(Хенрик.Георгсон.Шарлотта.Зилинг.Лиза.Сиве).[2013.криминальный.триллер.полицейский.детектив.мистическая.драма.HDTVRip].[MVO.(Amedia)].torrent без регистрации
Золото ЗОЛОТАЯ РАЗДАЧА! СКАЧАННОЕ НЕ ЗАСЧИТЫВАЕТСЯ! Золото
Дата: Зарегистрирован   [ Тип: внутренний ] Как тут cкачать?
MAGNET ссылка
MAGNET ссылка


Скачать .torrent

27 KB

Статус: проверено DHT
Скачан: торрент - 167 раз, раздача полностью - 120 раз
Размер: 9,96 GB
Оценка:  4,5 (Голосов: 2)
Поблагодарили: 6
Поделиться ссылкой на эту раздачу с друзьями:
В контактеFacebookОдноклассникиTwitterLivejournalМой МирLiveinternet
 

 

МихаНЕзатор

[] 

Раздача обновлена
 
Показать сообщения:    


Вы не можете начинать темы
Вы не можете отвечать на сообщения
Вы не можете редактировать свои сообщения
Вы не можете удалять свои сообщения
Вы не можете голосовать в опросах
Вы не можете прикреплять файлы к сообщениям
Вы можете скачивать файлы