Loading...
Error

Скачать Судья / La pretora (Лучио Фульчи) [1976, комедия, DVDRip-AVC] [VO] торрент без регистрации

 
Статистика раздачи
Размер:  1,45 GB   |    Скачан:  141 раз

Полного источника не было: 21 минута

 
Автор Сообщение

Marsianka

[] 

Страна: Италия
Жанр: комедия
Год выпуска: 1976
Продолжительность: 01:35:25
Перевод: Любительский (одноголосый)[schemer2009]
Режиссер: Лучио Фульчи / Lucio Fulci
В ролях: Эдвиж Фенек (Judge Viola Orlando / Rosa Orlando), Раф Лука (Raffaele Esposito), Giancarlo Dettori (Count Renato Altero), Марио Марандзана (Bortolon), Карло Спозито (Prosecutor), Вальтер Вальди (Zaganella), Джанни Агус (Angelo Scotti), Оресте Лионнелло (Francesco Lo Presti), Джанни Соларо (Magni - lawyer of Amorini), Пьеро Палермини (Car Salesman), Лука Спортелли (Toni), Галлиано Сбарра
Описание: Непримиримая судья городского магистрата Виола Орландо становится мишенью для недоброжелателей, которые нанимают её сестру-близнеца Розу, фотомодель и звезду сомнительного свойства, для того, чтобы пользуясь абсолютным сходством, опорочить Виолу и разрушить её репутацию, в то время как Виола разрывается между соблюдением закона и отказом от своего судейского поста ради того, чтобы выйти замуж за своего друга детства.

Семпл
Качество: DVDRip ( TestM | DVD9 [Custom] )
Контейнер: MKV

Видео: AVC, 712x552 @ 1012x552 (16:9), 1979 kbps, 25 fps, 0.201 bpp
Аудио: русский / AC3 / 2.0 / 48 kHz / 192 kbps
Навигация по главам: есть

General
Unique ID : 228837224052084768035003248896789473742 (0xAC28723B6C81EA8EBEDBA04871B869CE)
Complete name : C:TorrentSudja.mkv
Format : Matroska
Format version : Version 2
File size : 1.45 GiB
Duration : 1h 35mn
Overall bit rate : 2 173 Kbps
Movie name : = Судья / La Pretora DVDRip by SC Kosmos =
Encoded date : UTC 2013-03-28 19:57:38
Writing application : mkvmerge v3.3.0 ('Language') gebaut am Mar 24 2010 14:59:24
Writing library : libebml v0.8.0 + libmatroska v0.9.0

Video
ID : 1
Format : AVC
Format/Info : Advanced Video Codec
Format profile : High@L4.1
Format settings, CABAC : Yes
Format settings, ReFrames : 10 frames
Codec ID : V_MPEG4/ISO/AVC
Duration : 1h 35mn
Bit rate : 1 979 Kbps
Width : 712 pixels
Height : 552 pixels
Display aspect ratio : 16:9
Original display aspect ratio : 16:9
Frame rate : 25.000 fps
Color space : YUV
Chroma subsampling : 4:2:0
Bit depth : 8 bits
Scan type : Progressive
Bits/(Pixel*Frame) : 0.201
Stream size : 1.29 GiB (89%)
Title : Судья / La Pretora DVDRip by SC Kosmos
Writing library : x264 core 130 r2273 b3065e6
Encoding settings : cabac=1 / ref=10 / deblock=1:-2:-2 / analyse=0x3:0x112 / me=umh / subme=11 / psy=1 / psy_rd=1.00:0.15 / mixed_ref=1 / me_range=32 / chroma_me=1 / trellis=2 / 8x8dct=1 / cqm=0 / deadzone=21,11 / fast_pskip=1 / chroma_qp_offset=-3 / threads=12 / lookahead_threads=1 / sliced_threads=0 / nr=0 / decimate=1 / interlaced=0 / bluray_compat=0 / constrained_intra=0 / bframes=10 / b_pyramid=2 / b_adapt=1 / b_bias=0 / direct=3 / weightb=1 / open_gop=0 / weightp=1 / keyint=250 / keyint_min=25 / scenecut=40 / intra_refresh=0 / rc_lookahead=30 / rc=2pass / mbtree=0 / bitrate=1979 / ratetol=1.0 / qcomp=0.60 / qpmin=0 / qpmax=69 / qpstep=4 / cplxblur=20.0 / qblur=0.5 / vbv_maxrate=62500 / vbv_bufsize=78125 / nal_hrd=none / ip_ratio=1.40 / pb_ratio=1.30 / aq=1:1.00
Language : Italian
Default : No
Forced : No

Audio
ID : 2
Format : AC-3
Format/Info : Audio Coding 3
Mode extension : CM (complete main)
Codec ID : A_AC3
Duration : 1h 35mn
Bit rate mode : Constant
Bit rate : 192 Kbps
Channel(s) : 2 channels
Channel positions : Front: L R
Sampling rate : 48.0 KHz
Bit depth : 16 bits
Compression mode : Lossy
Stream size : 131 MiB (9%)
Title : VO [schemer]
Language : Russian
Default : Yes
Forced : No

Menu
00:00:00.000 : en:Chapter 01
00:10:37.200 : en:Chapter 02
00:16:30.600 : en:Chapter 03
00:21:04.800 : en:Chapter 04
00:30:50.400 : en:Chapter 05
00:35:55.800 : en:Chapter 06
00:38:54.000 : en:Chapter 07
00:43:22.800 : en:Chapter 08
00:48:07.200 : en:Chapter 09
00:53:32.400 : en:Chapter 10
00:58:54.600 : en:Chapter 11
01:09:01.800 : en:Chapter 12
01:12:01.800 : en:Chapter 13
01:16:07.200 : en:Chapter 14
01:21:43.200 : en:Chapter 15
01:23:19.800 : en:Chapter 16
01:25:51.000 : en:Chapter 17
01:29:45.600 : en:Chapter 18




Скачать Судья.La.pretora.(Лучио.Фульчи).[1976.комедия.DVDRip-AVC].[VO].torrent без регистрации
Золото ЗОЛОТАЯ РАЗДАЧА! СКАЧАННОЕ НЕ ЗАСЧИТЫВАЕТСЯ! Золото
Дата: Зарегистрирован   [ Тип: внутренний ] Как тут cкачать?
MAGNET ссылка
MAGNET ссылка


Скачать .torrent

15 KB

Статус: проверено DHT
Скачан: торрент - 141 раз, раздача полностью - 2 раз
Размер: 1,45 GB
Оценка:  - (Голосов: 0)
Поблагодарили: 1
Поделиться ссылкой на эту раздачу с друзьями:
В контактеFacebookОдноклассникиTwitterLivejournalМой МирLiveinternet
 

 
Показать сообщения:    


Вы не можете начинать темы
Вы не можете отвечать на сообщения
Вы не можете редактировать свои сообщения
Вы не можете удалять свои сообщения
Вы не можете голосовать в опросах
Вы не можете прикреплять файлы к сообщениям
Вы можете скачивать файлы