Loading...
Error

Скачать Обратная тяга / Backdraft (Рон Ховард) [1991, боевик, триллер, драма, криминал, детектив, BDRip-AVC] [MVO]+[Оригинал]+[Sub] торрент без регистрации

 
Статистика раздачи
Размер:  2,17 GB   |    Скачан:  127 раз
Сидов:  1  [  0 KB/s  ]  
 
Автор Сообщение

Marsianka

[] 

Информация о фильме:
Название: Обратная тяга
Оригинальное название: Backdraft
Год выпуска: 1991
Производство: США
Жанр: боевик, триллер, драма, криминал, детектив
Продолжительность: 02:17:17
Перевод: Профессиональный (многоголосый,закадровый)
Оригинальный аудиопоток: Английский

Режиссер: Рон Ховард / Ron Howard

В ролях: Курт Рассел, Уильям Болдуин, Роберт Де Ниро, Дональд Сазерленд, Дженнифер Джейсон Ли, Скотт Гленн, Ребекка Де Морнэй, Джейсон

Описание:
«Обратная тяга» - это термин профессиональных пожарных. В результате «обратной тяги» погибает отец Брайана и Стивена. В отличии от Стивена, Брайан отказывается от карьеры пожарного, но судьба распоряжается так, что братья оказываются в одном отряде. Отношения между ними натянуты. Вскоре младший покидает команду, чтобы вместе со следователем поймать поджигателя-маньяка...



Файл
Качество: BDRip-AVC
Формат: MKV
Видео: 1755 kbps, 1056x448, 23.976 fps
Аудио 1: AC3, 256 kbps (6 ch) 48 KHz - Rus
Аудио 2: AC3, 256 kbps (6 ch) 48 KHz - Eng
Субтитры: Русские, Английские SDH (внешние, SRT)
Релиз от:
Format : Matroska
File size : 2.17 GiB
Duration : 2h 17mn
Overall bit rate : 2 267 Kbps
Movie name : The Jolly Roger
Encoded date : UTC 2011-07-29 23:01:47
Writing application : mkvmerge v4.1.1 ('Bouncin' Back') сборка от Jul 3 2010 22:54:08
Writing library : libebml v1.0.0 + libmatroska v1.0.0

Video
ID : 1
Format : AVC
Format/Info : Advanced Video Codec
Format profile : High@L4.1
Format settings, CABAC : Yes
Format settings, ReFrames : 16 frames
Muxing mode : Container profile=Unknown@4.1
Codec ID : V_MPEG4/ISO/AVC
Duration : 2h 17mn
Bit rate : 1 710 Kbps
Nominal bit rate : 1 755 Kbps
Width : 1 056 pixels
Height : 448 pixels
Display aspect ratio : 2.35:1
Frame rate : 23.976 fps
Resolution : 24 bits
Colorimetry : 4:2:0
Scan type : Progressive
Bits/(Pixel*Frame) : 0.151
Stream size : 1.64 GiB (75%)
Title : The Jolly Roger by Pirat.Ca
Writing library : x264 core 114 r1924 08d04a4

Audio #1
ID : 2
Format : AC-3
Format/Info : Audio Coding 3
Codec ID : A_AC3
Duration : 2h 17mn
Bit rate mode : Constant
Bit rate : 256 Kbps
Channel(s) : 6 channels
Channel positions : Front: L C R, Surround: L R, LFE
Sampling rate : 48.0 KHz
Stream size : 251 MiB (11%)
Language : Russian

Audio #2
ID : 3
Format : AC-3
Format/Info : Audio Coding 3
Codec ID : A_AC3
Duration : 2h 17mn
Bit rate mode : Constant
Bit rate : 256 Kbps
Channel(s) : 6 channels
Channel positions : Front: L C R, Surround: L R, LFE
Sampling rate : 48.0 KHz
Stream size : 251 MiB (11%)



Скачать Обратная.тяга.Backdraft.(Рон.Ховард).[1991.боевик.триллер.драма.криминал.детектив.BDRip-AVC].[MVO]+[Оригинал]+[Sub].torrent без регистрации
Золото ЗОЛОТАЯ РАЗДАЧА! СКАЧАННОЕ НЕ ЗАСЧИТЫВАЕТСЯ! Золото
Дата: Зарегистрирован   [ Тип: внутренний ] Как тут cкачать?
MAGNET ссылка
MAGNET ссылка


Скачать .torrent

11 KB

Статус: проверено DHT
Скачан: торрент - 127 раз, раздача полностью - 48 раз
Размер: 2,17 GB
Оценка:  - (Голосов: 0)
Поблагодарили: 2
Поделиться ссылкой на эту раздачу с друзьями:
В контактеFacebookОдноклассникиTwitterLivejournalМой МирLiveinternet
 

 
Показать сообщения:    


Вы не можете начинать темы
Вы не можете отвечать на сообщения
Вы не можете редактировать свои сообщения
Вы не можете удалять свои сообщения
Вы не можете голосовать в опросах
Вы не можете прикреплять файлы к сообщениям
Вы можете скачивать файлы