Loading...
Error

Скачать Славные парни / Goodfellas (Мартин Скорсезе / Martin Scorsese) [1990, Драма, криминал, биография, BDRip] 4x[AVO] (Гаврилов, Горчаков, Живов, Прямостанов) торрент без регистрации

 
Статистика раздачи
Размер:  3,56 GB   |    Скачан:  115 раз
Сидов:  1  [  0 KB/s  ]  
 
Автор Сообщение

leon030982

[] 

Славные парни / Goodfellas

Год выпуска: 1990
Страна: США
Жанр: драма, криминал, биография
Продолжительность: 02:25:27
Перевод:
№1: Авторский (одноголосый, закадровый) [Гаврилов]
№2: Авторский (одноголосый, закадровый) [Горчаков]
№3: Авторский (одноголосый, закадровый) [Живов]
№4:Авторский (одноголосый, закадровый) [Прямостанов]
Субтитры: нет

Режиссер: Мартин Скорсезе / Martin Scorsese
Сценарий: Николас Пиледжи, Мартин Скорсезе
Продюсер: Барбара Де Фина, Брюс С. Пастин, Ирвин Уинклер
Оператор: Михаэль Балльхаус
Композитор: Ричард Адлер, Джефф Бэрри, Эрик Клэптон

В ролях: Роберт Де Ниро, Рэй Лиотта, Джо Пеши, Лоррейн Бракко, Пол Сорвино, Чак Лоу, Фрэнк ДиЛео, Фрэнк Сиверо, Тони Дарроу, Майк Старр
Описание: Генри Хилл, - начинающий гангстер, занимающийся грабежами вместе с Джими Конвеем и Томми Де Вито, которые с легкостью убивают любого, кто встает у них на пути восхождения к вершинам Мафии. Приходит время когда Генри, сам пострадавший от своих напарников, должен приложить руку к началу конца Джимми и Томми...
Качество: BDRip [Исх. Blu-ray VC-1 DD5 1 / hd-bits-ro]
Формат: AVI
Видео кодек: XviD
Аудио кодек: AC3
Видео: 720x400 (1.80:1), 23.976 fps, XviD build 46 ~1964 kbps avg, 0.28 bit/pixel
Аудио #1: 48 kHz, AC3 Dolby Digital, 3/2 (L,C,R,l,r) + LFE ch, ~448.00 kbps avg [Андрей Гаврилов]
Аудио #2: 48 kHz, AC3 Dolby Digital, 3/2 (L,C,R,l,r) + LFE ch, ~448.00 kbps avg [Василий Горчаков]
Аудио #3: 48 kHz, AC3 Dolby Digital, 3/2 (L,C,R,l,r) + LFE ch, ~448.00 kbps avg [Юрий Живов]
Аудио #4: 48 kHz, AC3 Dolby Digital, 2/0 (L,R) ch, ~192.00 kbps avg [Павел Прямостанов, оцифровка с VHS]

Оскар, 1991 год

Победитель (1):
* Лучшая мужская роль второго плана (Джо Пеши)
Номинации (5):
* Лучший фильм
* Лучшая женская роль второго плана (Лоррейн Бракко)
* Лучший режиссер (Мартин Скорсезе)
* Лучший адаптированный сценарий
* Лучший монтаж
Золотой глобус, 1991 год

Номинации (5):
* Лучший фильм (драма)
* Лучшая мужская роль второго плана (Джо Пеши)
* Лучшая женская роль второго плана (Лоррейн Бракко)
* Лучший режиссер (Мартин Скорсезе)
* Лучший сценарий
Британская академия, 1991 год

Победитель (5):
* Лучший фильм
* Лучший режиссер (Мартин Скорсезе)
* Лучший адаптированный сценарий
* Лучшие костюмы
* Лучший монтаж
Номинации (2):
* Лучшая мужская роль (Роберт Де Ниро)
* Лучшая работа оператора
Венецианский кинофестиваль, 1990 год

Победитель (1):
* Серебряный лев за лучшую режиссерскую работу (Мартин Скорсезе)
General
Complete name : E:\INTERNET\Slavnye.Parni.1990.BDRip.XviD.avi
Format : AVI
Format/Info : Audio Video Interleave
Format profile : OpenDML
File size : 3.56 GiB
Duration : 2h 25mn
Overall bit rate : 3 507 Kbps
Movie name : Славные парни / Goodfellas (1990) BDRip
Director : HITMAN
Writing application : VirtualDubModRus 1.5.10.2 (build 2542/release)
Writing library : VirtualDubMod build 2542/release

Video
ID : 0
Format : MPEG-4 Visual
Format profile : Advanced Simple@L5
Format settings, BVOP : Yes
Format settings, QPel : No
Format settings, GMC : No warppoints
Format settings, Matrix : Default (MPEG)
Codec ID : XVID
Codec ID/Hint : XviD
Duration : 2h 25mn
Bit rate : 1 946 Kbps
Width : 720 pixels
Height : 400 pixels
Display aspect ratio : 16:9
Frame rate : 23.976 fps
Color space : YUV
Chroma subsampling : 4:2:0
Bit depth : 8 bits
Scan type : Progressive
Bits/(Pixel*Frame) : 0.282
Stream size : 1.98 GiB (56%)
Writing library : XviD 1.1.2 (UTC 2006-11-01)

Audio #1
ID : 1
Format : AC-3
Format/Info : Audio Coding 3
Mode extension : CM (complete main)
Codec ID : 2000
Duration : 2h 25mn
Bit rate mode : Constant
Bit rate : 448 Kbps
Channel(s) : 6 channels
Channel positions : Front: L C R, Side: L R, LFE
Sampling rate : 48.0 KHz
Bit depth : 16 bits
Stream size : 466 MiB (13%)
Alignment : Split accross interleaves
Interleave, duration : 42 ms (1.00 video frame)
Interleave, preload duration : 500 ms

Audio #2
ID : 2
Format : AC-3
Format/Info : Audio Coding 3
Mode extension : CM (complete main)
Codec ID : 2000
Duration : 2h 25mn
Bit rate mode : Constant
Bit rate : 448 Kbps
Channel(s) : 6 channels
Channel positions : Front: L C R, Side: L R, LFE
Sampling rate : 48.0 KHz
Bit depth : 16 bits
Stream size : 466 MiB (13%)
Alignment : Split accross interleaves
Interleave, duration : 42 ms (1.00 video frame)
Interleave, preload duration : 500 ms

Audio #3
ID : 3
Format : AC-3
Format/Info : Audio Coding 3
Mode extension : CM (complete main)
Codec ID : 2000
Duration : 2h 25mn
Bit rate mode : Constant
Bit rate : 448 Kbps
Channel(s) : 6 channels
Channel positions : Front: L C R, Side: L R, LFE
Sampling rate : 48.0 KHz
Bit depth : 16 bits
Stream size : 466 MiB (13%)
Alignment : Split accross interleaves
Interleave, duration : 42 ms (1.00 video frame)
Interleave, preload duration : 500 ms

Audio #4
ID : 4
Format : AC-3
Format/Info : Audio Coding 3
Mode extension : CM (complete main)
Codec ID : 2000
Duration : 2h 25mn
Bit rate mode : Constant
Bit rate : 192 Kbps
Channel(s) : 2 channels
Channel positions : Front: L R
Sampling rate : 48.0 KHz
Bit depth : 16 bits
Stream size : 200 MiB (5%)
Alignment : Split accross interleaves
Interleave, duration : 42 ms (1.00 video frame)
Interleave, preload duration : 500 ms




Скачать Славные.парни.Goodfellas.(Мартин.Скорсезе.Martin.Scorsese).[1990.Драма.криминал.биография.BDRip].4x[AVO].(Гаврилов.Горчаков.Живов.Прямостанов).torrent без регистрации
Золото ЗОЛОТАЯ РАЗДАЧА! СКАЧАННОЕ НЕ ЗАСЧИТЫВАЕТСЯ! Золото
Дата: Зарегистрирован   [ Тип: внутренний ] Как тут cкачать?
MAGNET ссылка
MAGNET ссылка


Скачать .torrent

18 KB

Статус: проверено DHT
Скачан: торрент - 115 раз, раздача полностью - 38 раз
Размер: 3,56 GB
Оценка:  - (Голосов: 0)
Поблагодарили: 2
Поделиться ссылкой на эту раздачу с друзьями:
В контактеFacebookОдноклассникиTwitterLivejournalМой МирLiveinternet
 

 
Показать сообщения:    


Вы не можете начинать темы
Вы не можете отвечать на сообщения
Вы не можете редактировать свои сообщения
Вы не можете удалять свои сообщения
Вы не можете голосовать в опросах
Вы не можете прикреплять файлы к сообщениям
Вы можете скачивать файлы