Loading...
Error

Скачать Лилит / Lilith (Роберт Россен) [1964, драма, BDRip] [VO]+[Sub] торрент без регистрации

 
Статистика раздачи
Размер:  1,82 GB   |    Скачан:  99 раз
Сидов:  1  [  0 KB/s  ]  
 
Автор Сообщение

Marsianka

[] 

Название: Лилит
Оригинальное название: Lilith
Год выпуска: 1964
Жанр: драма
Выпущено: США, Columbia Pictures Corporation
Режиссер: Роберт Россен
В ролях: Уоррен Битти, Джин Сиберг, Питер Фонда, Ким Хантер, Энн Мичам, Джессика Уолтер, Джин Хэкмен, Джеймс Паттерсон, Роберт Рейли, Уолтер Арнольд

О фильме: Винсент Брюс, ветеран Корейской войны, возвращается на родину в штат Мэриленд и становится врачом в психиатрической клинике для состоятельных душевнобольных. Там он встречает красивую молодую пациентку по имени Лилит Артур, которая живет в своем зыбком выдуманном мире, и влюбляется в неё. Между Винсентом и Лилит начинается роман.

Качество: BDRip
Видео: XviD, 1899 Кбит/с, 720x384
Аудио: Русский, английский (AC3, 2 ch, 192 Кбит/с)
Размер: 1.82 ГБ
Продолжительность: 01:53:55
Перевод: Любительский одноголосый (mangeim)
Субтитры: Русские, английские

Сравнение с исходником

Золотой глобус, 1965 год
Номинации (1):
Лучшая женская роль (драма) (Джин Сиберг)
cyberlaw

Дуэт Джейн Сиберг и Уоррена Битти

В творчестве Вима Вендерса есть очень странный и до конца не оценённый фильм Отель Миллион долларов. Ключевая идея этого фильма заключается в том, что любовь сложно отделить от безумия.
Фильм «Лилит» на сходную тему: Уоррен Битти влюбляется в Джейн Сиберг (пациентку психиатрической клиники). Причины, по которым Сиберг оказалась в клинике, неизвестны герою Уоррена Битти. Собственно, фильм строится в большей степени не на перипетиях сюжета, а на природной красоте двух известных актёров.
Для меня самым приятным открытием фильма стала режиссура Роберта Россена. Прежде всего, он не мешает Битти и Сиберг занимать большую часть экранного времени. Ну а техническая разработка постановки каждого эпизода фильма (постановка сцен, свет и т. д.) вполне может претендовать на включение в пособие для начинающих режиссёров.

7 из 10

Кинопоиск
Общее
Полное имя : E:VideoLilit.1964.XviD.BDRipLilit.1964.eng.srt
Формат : SubRip
Размер файла : 68,2 Кбайт

Текст
Формат : SubRip
Метод сжатия : Без потерь

Общее
Полное имя : E:VideoLilit.1964.XviD.BDRipLilit.1964.Original.eng.ac3
Формат : AC-3
Формат/Информация : Audio Coding 3
Размер файла : 156 Мбайт
Продолжительность : 1 ч. 53 м.
Режим общего битрейта : Постоянный
Общий поток : 192 Кбит/сек

Аудио
Формат : AC-3
Формат/Информация : Audio Coding 3
Расширение режима : CM (complete main)
Параметр Endianness формата : Big
Продолжительность : 1 ч. 53 м.
Вид битрейта : Постоянный
Битрейт : 192 Кбит/сек
Каналы : 2 канала
Расположение каналов : Front: L R
Частота : 48,0 КГц
Битовая глубина : 16 бит
Метод сжатия : С потерями
Размер потока : 156 Мбайт (100%)

Общее
Полное имя : E:VideoLilit.1964.XviD.BDRipLilit.1964.rus.srt
Формат : SubRip
Размер файла : 94,4 Кбайт

Текст
Формат : SubRip
Метод сжатия : Без потерь

Общее
Полное имя : E:VideoLilit.1964.XviD.BDRipLilit.1964.XviD.BDRip.avi
Формат : AVI
Формат/Информация : Audio Video Interleave
Размер файла : 1,67 Гбайт
Продолжительность : 1 ч. 53 м.
Общий поток : 2101 Кбит/сек
Программа кодирования : VirtualDubMod 1.5.10.2 (build 2540/release)
Библиотека кодирования : VirtualDubMod build 2540/release

Видео
Идентификатор : 0
Формат : MPEG-4 Visual
Профиль формата : Advanced Simple@L5
Параметр BVOP формата : 1
Параметр QPel формата : Нет
Параметр GMC формата : Без точки перехода
Параметр матрицы формата : Default (H.263)
Режим смешивания : Сжатый битовый поток
Идентификатор кодека : XVID
Идентификатор кодека/Подсказка : XviD
Продолжительность : 1 ч. 53 м.
Битрейт : 1899 Кбит/сек
Ширина : 720 пикселей
Высота : 384 пикселя
Соотношение сторон : 1,85:1
Частота кадров : 23,976 кадра/сек
Цветовое пространство : YUV
Субдискретизация насыщенности : 4:2:0
Битовая глубина : 8 бит
Тип развёртки : Прогрессивная
Метод сжатия : С потерями
Бит/(Пиксели*Кадры) : 0.286
Размер потока : 1,51 Гбайт (90%)
Библиотека кодирования : XviD 1.2.1 (UTC 2008-12-04)

Аудио
Идентификатор : 1
Формат : AC-3
Формат/Информация : Audio Coding 3
Расширение режима : CM (complete main)
Параметр Endianness формата : Big
Идентификатор кодека : 2000
Продолжительность : 1 ч. 53 м.
Вид битрейта : Постоянный
Битрейт : 192 Кбит/сек
Каналы : 2 канала
Расположение каналов : Front: L R
Частота : 48,0 КГц
Битовая глубина : 16 бит
Метод сжатия : С потерями
Размер потока : 156 Мбайт (9%)
Выравнивание : Разделение по промежуткам
Продолжительность промежутка : 42 мс. (1,00 видеокадр)
Время предзагрузки промежутка : 500 мс.



Скачать Лилит.Lilith.(Роберт.Россен).[1964.драма.BDRip].[VO]+[Sub].torrent без регистрации
Золото ЗОЛОТАЯ РАЗДАЧА! СКАЧАННОЕ НЕ ЗАСЧИТЫВАЕТСЯ! Золото
Дата: Зарегистрирован   [ Тип: внутренний ] Как тут cкачать?
MAGNET ссылка
MAGNET ссылка


Скачать .torrent

19 KB

Статус: проверено DHT
Скачан: торрент - 99 раз, раздача полностью - 1 раз
Размер: 1,82 GB
Оценка:  - (Голосов: 0)
Поблагодарили: 2
Поделиться ссылкой на эту раздачу с друзьями:
В контактеFacebookОдноклассникиTwitterLivejournalМой МирLiveinternet
 

 
Показать сообщения:    


Вы не можете начинать темы
Вы не можете отвечать на сообщения
Вы не можете редактировать свои сообщения
Вы не можете удалять свои сообщения
Вы не можете голосовать в опросах
Вы не можете прикреплять файлы к сообщениям
Вы можете скачивать файлы