Loading...
Error

Скачать Северная стена / The North Face / Nordwand (Филипп Штольц) [2008, психологический, драма, реальные события, приключения, HDRip] [Dub] торрент без регистрации

 
Статистика раздачи
Размер:  1,95 GB   |    Скачан:  127 раз

Полного источника не было: 24 минуты

 
Автор Сообщение

Marsianka

[] 

Информация о фильме
Название: Северная стена
Оригинальное название: The North Face / Nordwand
Год выхода: 2008
Жанр: психологический, драма, реальные события, приключения
Выпущено: Германия
Продолжительность: 02:06:05
Перевод: Дублированный
Субтитры: отсутствуют

Режиссер: Филипп Штольц / Philipp St¦lzl
В ролях: Бенно Фюрманн, Иоханна Вокалек, Флориан Лукас, Георг Фридрих, Саймон Шварц, Ульрих Тукур, Эрвин Штайнхауэр, Бранко Самаровски, Петра Морзе, Ганспетер Мюллер и др.

Русский дубляж: Денис Сутыка, Павел Кондрашин, Ольга Борисова, Ярослав Тимофеев, Александр Пеганов, Александр Данилов, Михаил Емельянов, Мария Конониренко, Вячеслав Мидонов и др.

О фильме:
1936 год. Северная стена Айгера - последняя "нерешенная проблема" Альп, за решение которой сам Гитлер лично обещает вручить золотые медали Берлинской олимпиады... Северную стену Айгера прозвали "Стеной смерти", на неё власти запретили совершать восхождения, а спасатели вопреки всем канонам и уставам заявили в запале, что больше никого не будут вытаскивать с этой стены. Два баварца - Андреас Хинтерштойсер и Тони Курц, и два австрийца - Вилли Ангерер и Эдди Райнер объединяют усилия в штурме стены...



Формат: AVI
Качество: HDRip
Видео: XviD ISO MPEG-4; 720 x 304 (2,368:1); 24,00 Fr/s; 1798 kbps; 0.342 bits/pics-fr

Сэмпл
Аудио1: AC-3 stereo 48,0КГц 16 bit 192kbps [русский, дублированный, SaTI]
Аудио2: Dolby AC3 48000Hz 224 kb/s tot , 6 chnls (3/2 .1) [оригинал, немецкий]

Общее
Полное имя : C:SaTINordwand.avi
Формат : AVI
Формат/Информация : Audio Video Interleave
Размер файла : 1,95 Гбайт
Продолжительность : 2 ч. 6 м.
Общий поток : 2219 Кбит/сек
Программа кодирования : VirtualDubMod 1.5.10.2 (build 2540/release)
Библиотека кодирования : VirtualDubMod build 2540/release

Видео
Идентификатор : 0
Формат : MPEG-4 Visual
Профиль формата : Advanced Simple@L5
Параметр BVOP формата : 2
Параметр QPel формата : Нет
Параметр GMC формата : Без точки перехода
Параметр матрицы формата : Default (MPEG)
Режим смешивания : Сжатый битовый поток
Идентификатор кодека : XVID
Идентификатор кодека/Подсказка : XviD
Продолжительность : 2 ч. 6 м.
Битрейт : 1789 Кбит/сек
Ширина : 720 пикселей
Высота : 304 пикселя
Соотношение сторон : 2,35:1
Частота кадров : 24,000 кадра/сек
Цветовое пространство : YUV
Субдискретизация насыщенности : 4:2:0
Битовая глубина : 8 бит
Тип развёртки : Прогрессивная
Метод сжатия : С потерями
Бит/(Пиксели*Кадры) : 0.341
Размер потока : 1,58 Гбайт (81%)
Библиотека кодирования : XviD 1.2.0.dev47 (UTC 2006-11-01)

Аудио #1
Идентификатор : 1
Формат : AC-3
Формат/Информация : Audio Coding 3
Расширение режима : CM (complete main)
Параметр Endianness формата : Big
Идентификатор кодека : 2000
Продолжительность : 2 ч. 6 м.
Вид битрейта : Постоянный
Битрейт : 192 Кбит/сек
Каналы : 2 канала
Расположение каналов : Front: L R
Частота : 48,0 КГц
Битовая глубина : 16 бит
Метод сжатия : С потерями
Размер потока : 173 Мбайт (9%)
Выравнивание : Разделение по промежуткам
Продолжительность промежутка : 42 мс. (1,00 видеокадр)
Время предзагрузки промежутка : 500 мс.

Аудио #2
Идентификатор : 2
Формат : AC-3
Формат/Информация : Audio Coding 3
Расширение режима : CM (complete main)
Параметр Endianness формата : Big
Идентификатор кодека : 2000
Продолжительность : 2 ч. 6 м.
Вид битрейта : Постоянный
Битрейт : 224 Кбит/сек
Каналы : 6 каналов
Расположение каналов : Front: L C R, Side: L R, LFE
Частота : 48,0 КГц
Битовая глубина : 16 бит
Метод сжатия : С потерями
Размер потока : 202 Мбайт (10%)
Выравнивание : Разделение по промежуткам
Продолжительность промежутка : 42 мс. (1,00 видеокадр)
Время предзагрузки промежутка : 500 мс.



Скачать Северная.стена.The.North.Face.Nordwand.(Филипп.Штольц).[2008.психологический.драма.реальные.события.приключения.HDRip].[Dub].torrent без регистрации
Золото ЗОЛОТАЯ РАЗДАЧА! СКАЧАННОЕ НЕ ЗАСЧИТЫВАЕТСЯ! Золото
Дата: Зарегистрирован   [ Тип: внутренний ] Как тут cкачать?
MAGNET ссылка
MAGNET ссылка


Скачать .torrent

20 KB

Статус: проверено DHT
Скачан: торрент - 127 раз, раздача полностью - 62 раз
Размер: 1,95 GB
Оценка:  - (Голосов: 0)
Поблагодарили: 1
Поделиться ссылкой на эту раздачу с друзьями:
В контактеFacebookОдноклассникиTwitterLivejournalМой МирLiveinternet
 

 
Показать сообщения:    


Вы не можете начинать темы
Вы не можете отвечать на сообщения
Вы не можете редактировать свои сообщения
Вы не можете удалять свои сообщения
Вы не можете голосовать в опросах
Вы не можете прикреплять файлы к сообщениям
Вы можете скачивать файлы