Loading...
Error

Скачать Ничего не вижу, ничего не слышу / See No Evil, Hear No Evil (Артур Хиллер) [1989, боевик, триллер, комедия, криминал, BDRip-AVC] [MVO]x2+[AVO]+[Sub] торрент без регистрации

 
Статистика раздачи
Размер:  2,18 GB   |    Скачан:  133 раза
Сидов:  30  [  0 KB/s  ]  
 
Автор Сообщение

Marsianka

[] 

Страна: США
Производство: TriStar Pictures
Жанр: боевик, триллер, комедия, криминал
Год выпуска: 1989
Продолжительность: 01:42:04
Профессиональный (Многоголосый закадровый) (ОРТ), Профессиональный (Многоголосый закадровый) (СТС), Авторский (одноголосый закадровый) В. Горчаков
Оригинальная аудиодорожка: нет
Cубтитры: русский, английский
Режиссер: Артур Хиллер / Arthur Hiller

В ролях:
Ричард Прайор (Wallace 'Wally' Karue), Джин Уайлдер (Dave Lyons), Джоан Северанс (Eve), Кевин Спейси (Kirgo), Алан Норт (Braddock), Энтони Зерби (Sutherland), Луис Гьямбалво (Gatlin), Керстен Чайлдз (Adele), Харди Роулз (Beefy Tourist), Одри Дж. Нинан (Policewoman and Marilyn), Лоурен Том (Mitzie), Джон Каподиче (Scotto)...

Описание:
На глазах Дэйва совершается убийство, но он глухой. Уолли все слышал, но он слепой. Вместе они идеальные свидетели преступления для самих преступников и единственные подозреваемые для полицейских.
И те и другие начинают поиски неуловимой парочки. Но вдвоем они оказываются хитрее своих преследователей. В конце концов, слепой с глухим решают сами вершить правосудие

Исходник: BDRemux 1080p
Тип релиза: BDRip-AVC
Контейнер: MKV

Видео: 1024x554 (16:9), 23,976 fps, H264 ~ 2483 kbps avg, 0.183 bit/pixel
Аудио: 48 kHz, Dolby AC3 2.0, 192 kbps MVO (ОРТ)
Аудио: 48 kHz, Dolby AC3 2.0, 192 kbps MVO (СТС)
Аудио: 48 kHz, Dolby AC3 2.0, 192 kbps AVO (В. Горчаков)
Субтитры: SoftSub (srt)
Оригинальная навигация по главам: есть
Раздача от:

Общее
Полное имя : Nichego.ne.vischu.nichego.ne.slyschu.1989.BDRip-AVC_[New-team]_by_AVP_Studio.mkv
Формат : Matroska
Версия формата : Version 4 / Version 2
Размер файла : 2,18 Гбайт
Продолжительность : 1 ч. 42 м.
Общий поток : 3060 Кбит/сек
Название фильма : Nichego.ne.vischu.nichego.ne.slyschu.1989.BDRip-AVC_[New-team]_by_AVP_Studio
Дата кодирования : UTC 2013-11-24 15:52:29
Программа кодирования : mkvmerge v6.5.0 ('Isn't she lovely') built on Oct 20 2013 12:50:05
Библиотека кодирования : libebml v1.3.0 + libmatroska v1.4.1

Видео
Идентификатор : 1
Формат : AVC
Формат/Информация : Advanced Video Codec
Профиль формата : High@L4.1
Параметр CABAC формата : Да
Параметр ReFrames формата : 6 кадров
Идентификатор кодека : V_MPEG4/ISO/AVC
Продолжительность : 1 ч. 42 м.
Битрейт : 2483 Кбит/сек
Ширина : 1024 пикселя
Высота : 554 пикселя
Соотношение сторон : 16:9
Частота кадров : 23,976 кадра/сек
Цветовое пространство : YUV
Субдискретизация насыщенности : 4:2:0
Битовая глубина : 8 бит
Тип развёртки : Прогрессивная
Бит/(Пиксели*Кадры) : 0.183
Размер потока : 1,73 Гбайт (79%)
Заголовок : Источник BDRemux
Библиотека кодирования : x264 core 138 r2356 a1d3d17
Настройки программы : cabac=1 / ref=6 / deblock=1:-3:-2 / analyse=0x3:0x113 / me=umh / subme=10 / psy=1 / psy_rd=1.00:0.05 / mixed_ref=1 / me_range=32 / chroma_me=1 / trellis=2 / 8x8dct=1 / cqm=0 / deadzone=21,11 / fast_pskip=0 / chroma_qp_offset=-3 / threads=3 / lookahead_threads=1 / sliced_threads=0 / nr=0 / decimate=0 / interlaced=0 / bluray_compat=0 / constrained_intra=0 / bframes=8 / b_pyramid=2 / b_adapt=2 / b_bias=0 / direct=3 / weightb=1 / open_gop=0 / weightp=2 / keyint=240 / keyint_min=24 / scenecut=40 / intra_refresh=0 / rc_lookahead=40 / rc=2pass / mbtree=1 / bitrate=2483 / ratetol=1.0 / qcomp=0.60 / qpmin=0 / qpmax=69 / qpstep=4 / cplxblur=20.0 / qblur=0.5 / ip_ratio=1.40 / aq=1:1.00
Язык : English
Default : Да
Forced : Нет

Аудио #1
Идентификатор : 2
Формат : AC-3
Формат/Информация : Audio Coding 3
Расширение режима : CM (complete main)
Идентификатор кодека : A_AC3
Продолжительность : 1 ч. 42 м.
Вид битрейта : Постоянный
Битрейт : 192 Кбит/сек
Каналы : 2 канала
Расположение каналов : Front: L R
Частота : 48,0 КГц
Битовая глубина : 16 бит
Метод сжатия : С потерями
Размер потока : 140 Мбайт (6%)
Заголовок : Источник BDRemux Dolby Digital 2,0 192 kbps ОРТ
Язык : Russian
Default : Да
Forced : Нет

Аудио #2
Идентификатор : 3
Формат : AC-3
Формат/Информация : Audio Coding 3
Расширение режима : CM (complete main)
Идентификатор кодека : A_AC3
Продолжительность : 1 ч. 42 м.
Вид битрейта : Постоянный
Битрейт : 192 Кбит/сек
Каналы : 2 канала
Расположение каналов : Front: L R
Частота : 48,0 КГц
Битовая глубина : 16 бит
Метод сжатия : С потерями
Размер потока : 140 Мбайт (6%)
Заголовок : Источник BDRemux Dolby Digital 2,0 192 kbps СТС
Язык : Russian
Default : Нет
Forced : Нет

Аудио #3
Идентификатор : 4
Формат : AC-3
Формат/Информация : Audio Coding 3
Расширение режима : CM (complete main)
Идентификатор кодека : A_AC3
Продолжительность : 1 ч. 42 м.
Вид битрейта : Постоянный
Битрейт : 192 Кбит/сек
Каналы : 2 канала
Расположение каналов : Front: L R
Частота : 48,0 КГц
Битовая глубина : 16 бит
Метод сжатия : С потерями
Размер потока : 140 Мбайт (6%)
Заголовок : Источник BDRemux Dolby Digital 2,0 192 kbps AVO (В. Горчаков)
Язык : Russian
Default : Нет
Forced : Нет

Текст #1
Идентификатор : 5
Формат : UTF-8
Идентификатор кодека : S_TEXT/UTF8
Идентификатор кодека/Информация : UTF-8 Plain Text
Заголовок : Источник BDRemux SoftSub (srt)
Язык : Russian
Default : Нет
Forced : Нет

Текст #2
Идентификатор : 6
Формат : UTF-8
Идентификатор кодека : S_TEXT/UTF8
Идентификатор кодека/Информация : UTF-8 Plain Text
Заголовок : Источник BDRemux SoftSub (srt) по А. Михалёву
Язык : Russian
Default : Нет
Forced : Нет

Текст #3
Идентификатор : 7
Формат : UTF-8
Идентификатор кодека : S_TEXT/UTF8
Идентификатор кодека/Информация : UTF-8 Plain Text
Заголовок : Источник BDRemux SoftSub (srt)
Язык : English
Default : Нет
Forced : Нет

Меню
00:00:00.000 : en:00:00:00.000
00:06:18.544 : en:00:06:18.545
00:12:29.039 : en:00:12:29.040
00:20:05.954 : en:00:20:05.955
00:24:44.733 : en:00:24:44.733
00:30:22.946 : en:00:30:22.946
00:35:54.026 : en:00:35:54.027
00:43:46.498 : en:00:43:46.499
00:52:08.708 : en:00:52:08.709
00:57:32.198 : en:00:57:32.199
01:05:00.438 : en:01:05:00.438
01:12:27.968 : en:01:12:27.969
01:17:33.106 : en:01:17:33.107
01:22:13.511 : en:01:22:13.512
01:26:41.154 : en:01:26:41.154
01:33:50.374 : en:01:33:50.375



Скачать Ничего.не.вижу.ничего.не.слышу.See.No.Evil.Hear.No.Evil.(Артур.Хиллер).[1989.боевик.триллер.комедия.криминал.BDRip-AVC].[MVO]x2+[AVO]+[Sub].torrent без регистрации
Золото ЗОЛОТАЯ РАЗДАЧА! СКАЧАННОЕ НЕ ЗАСЧИТЫВАЕТСЯ! Золото
Дата: Зарегистрирован   [ Тип: внешний ] Как тут cкачать?
MAGNET ссылка
MAGNET ссылка


Скачать .torrent

12 KB

Статус: проверено DHT
Скачан: торрент - 133 раз, раздача полностью - 272 раз
Размер: 2,18 GB
Оценка:  - (Голосов: 0)
Поблагодарили: 3
Поделиться ссылкой на эту раздачу с друзьями:
В контактеFacebookОдноклассникиTwitterLivejournalМой МирLiveinternet
 

 
Показать сообщения:    


Вы не можете начинать темы
Вы не можете отвечать на сообщения
Вы не можете редактировать свои сообщения
Вы не можете удалять свои сообщения
Вы не можете голосовать в опросах
Вы не можете прикреплять файлы к сообщениям
Вы можете скачивать файлы