Loading...
Error

Скачать Чертов мобильник / Hellphone (Джеймс Хат) [2007, Ужасы, фэнтези, комедия, детектив, HDTVRip] [DUB] торрент без регистрации

 
Статистика раздачи
Размер:  749 MB   |    Скачан:  117 раз
Сидов:  1  [  0 KB/s  ]  
 
Автор Сообщение

deadmauVlad

[] 

«Стань абонентом сети желаний»

Название: Чертов мобильник
Оригинальное название: Hellphone
Год выпуска: 2007
Выпущено: Франция, Captain Movies
Продолжительность: 01:35:23
Жанр: Ужасы, фэнтези, комедия, детектив
Перевод: Дубляж
Режиссер: Джеймс Хат
В ролях: Жан-Баптист Монье, Дженнифер Деккер, Бенджамин Юнгерс, Владимир Консиньи, Эдуар Коллен, Баптист Кайо, Анаис Демустье, Жюдит Шемла, Квентин Гроссе, Жеральдин Мартино, Жиль Гастон-Дрефус, Клотильда Молле, Бруно Саломон, Жиль Прива, Жан Дюжарден

Описание: У семнадцатилетнего Сида была одна страсть скейтборд, пока в его классе не появилась "чумовая" новенькая Анжи, от которой у Сида "снесло башню". У бедного парня нет ни единого шанса покорить сердце красотки. Во-первых, он живет в трущобах на окраине города, во-вторых, работает официантом в вонючей забегаловке, в третьих в кармане пусто, а главное у него нет даже мобильника! Сид знает, что он самый жалкий неудачник на земле. Но жизнь парня круто меняется, когда ему в руки случайно попадает потрясающе крутой мобильник. Как лампа Аладдина, мобила моментально выполняет все желания Сида. Теперь ему доступно абсолютно все, казалось бы, о чем еще мечтать? Но постепенно Сид начинает терять контроль над происходящим, и его жизнь превращается в нереальные приключения...

Качество: HDTVRip
Формат: AVI

Видео: 688x384 (1.79:1), 25 fps, XviD build 50 ~975 kbps avg, 0.15 bit/pixe
Аудио: 44.100 kHz, MPEG Layer 3, 2 ch, ~112.00 kbps avg

Общее
Полное имя : C:UsersDeadmauvladDesktopРелизы На выкладкуChertov.mobilnik.2007.Xvid.HDTVRip.Deadmauvlad.avi
Формат : AVI
Формат/Информация : Audio Video Interleave
Размер файла : 749 Мбайт
Продолжительность : 1 ч. 35 м.
Общий поток : 1097 Кбит/сек
Режиссёр : Deadmauvlad
Тема : Chertov.mobilnik.2007.Xvid..AC-3.Deadmauvlad.HDTVRip
Программа кодирования : VirtualDubMod 1.5.10.3 | www.virtualdub-fr.org || (build 2550/release)
Библиотека кодирования : VirtualDub build 35390/release
Правообладатель : Deadmauvlad Team's

Видео
Идентификатор : 0
Формат : MPEG-4 Visual
Профиль формата : Advanced Simple@L5
Параметр BVOP формата : 2
Параметр QPel формата : Нет
Параметр GMC формата : Без точки перехода
Параметр матрицы формата : Default (MPEG)
Идентификатор кодека : XVID
Идентификатор кодека/Подсказка : XviD
Продолжительность : 1 ч. 35 м.
Битрейт : 976 Кбит/сек
Ширина : 688 пикселей
Высота : 384 пикселя
Соотношение сторон : 16:9
Частота кадров : 25,000 кадров/сек
Цветовое пространство : YUV
Субдискретизация насыщенности : 4:2:0
Битовая глубина : 8 бит
Тип развёртки : Прогрессивная
Метод сжатия : С потерями
Бит/(Пиксели*Кадры) : 0.148
Размер потока : 665 Мбайт (89%)
Библиотека кодирования : XviD 1.2.1 (UTC 2008-12-04)

Аудио
Идентификатор : 1
Формат : MPEG Audio
Версия формата : Version 1
Профиль формата : Layer 3
Идентификатор кодека : 55
Идентификатор кодека/Подсказка : MP3
Продолжительность : 1 ч. 35 м.
Вид битрейта : Постоянный
Битрейт : 112 Кбит/сек
Каналы : 2 канала
Частота : 44,1 КГц
Метод сжатия : С потерями
Размер потока : 76,4 Мбайт (10%)
Выравнивание : Разделение по промежуткам
Продолжительность промежутка : 40 мс. (1,00 видеокадр)
Время предзагрузки промежутка : 500 мс.
Библиотека кодирования : LAME3.99r
Настройки программы : -m s -V 4 -q 1 -lowpass 15.6 -b 112












Скачать Чертов.мобильник.Hellphone.(Джеймс.Хат).[2007.Ужасы.фэнтези.комедия.детектив.HDTVRip].[DUB].torrent без регистрации
Золото ЗОЛОТАЯ РАЗДАЧА! СКАЧАННОЕ НЕ ЗАСЧИТЫВАЕТСЯ! Золото
Дата: Зарегистрирован   [ Тип: внутренний ] Как тут cкачать?
MAGNET ссылка
MAGNET ссылка


Скачать .torrent

15 KB

Статус: проверено DHT
Скачан: торрент - 117 раз, раздача полностью - 4 раз
Размер: 749 MB
Оценка:  5 (Голосов: 1)
Поблагодарили: 0
Поделиться ссылкой на эту раздачу с друзьями:
В контактеFacebookОдноклассникиTwitterLivejournalМой МирLiveinternet
 

 
Показать сообщения:    


Вы не можете начинать темы
Вы не можете отвечать на сообщения
Вы не можете редактировать свои сообщения
Вы не можете удалять свои сообщения
Вы не можете голосовать в опросах
Вы не можете прикреплять файлы к сообщениям
Вы можете скачивать файлы