Loading...
Error

Скачать Костер тщеславий / The Bonfire of the Vanities (Брайан Де Пальма) [1990, драма, комедия, BDRip-AVC] [Dub]+[MVO]+[AVO]x2+[Sub] торрент без регистрации

 
Статистика раздачи
Размер:  3,03 GB   |    Скачан:  102 раза
Сидов:  1  [  0 KB/s  ]  
 
Автор Сообщение

Marsianka

[] 

Информация о фильме
Название: Костер тщеславий
Оригинальное название: The Bonfire of the Vanities
Год выхода: 1990
Жанр: драма, комедия
Режиссер: Брайан Де Пальма
В ролях: Том Хэнкс, Брюс Уиллис, Мелани Гриффит, Ким Кэтролл, Сол Рубинек, Морган Фримен, Джон Хэнкок, Кевин Данн, Клифтон Джеймс, Луис Джамбалво, Бэртон Хейман, Норман Паркер, Доналд Моффат, Алан Кинг, Бет Бродерик, Курт Фуллер, Адам ЛаФевр, Ричард Либертини, Андре Грегори, Мэри Элис, Роберт Стефенс, Марджори Монаган, Рита Уилсон, Кирстен Данст, Трой Уинбуш, Патрик Мэлоун, Эммануэль Ксуреб, Скотти Блоч, Хэнсфорд Роу, Элизабет Оуэнс, Мэлачи МакКурт, Джон Бентли, Уильям Кларк, Камрин Манхейм, Ф. Мюррей Абрахам

О фильме:
Шерман Маккой был этаким «центром Вселенной» с Уолл-Стрит. И все в его жизни было правильно и надлежащим образом. У него была замечательная карьера, замечательный дом, замечательная жена. Только однажды ночью, сидя в хорошем автомобиле, он сделал «не тот» поворот, в «не том» месте, с «не той» женщиной. И с тех пор у него все пошло не так.



Страна: США
Студия: Warner Bros. Pictures
Продолжительность: 02:05:24
Перевод: Дублированный, профессиональный (многоголосый закадровый), авторский (одноголосый закадровый)

Файл
Кодек: h.264
Качество: BDRip-AVC
Видео: 2500 Кбит/с, 1024x576, 23.976 кадр/с

Звук:
Аудио #1: Русский (AC3, 2 ch, 192 Кбит/с) / Дублированный (Варус-Видео)
Аудио #2: Русский (AC3, 2 ch, 192 Кбит/с) / Профессиональный многоголосый (ТНТ/ТВ3)
Аудио #3: Русский (AC3, 2 ch, 192 Кбит/с) / Авторский одноголосый (Василий Горчаков)
Аудио #4: Русский (AC3, 2 ch, 192 Кбит/с) / Авторский одноголосый (Алексей Михалев)
Аудио #5: Английский (AC3, 2 ch, 192 Кбит/с)

Субтитры: Английские [SDH]

----------------------------------------------------------------------
x264 [info]: frame I:1200 Avg QP:16.80 size: 71686
x264 [info]: frame P:35972 Avg QP:19.43 size: 27251
x264 [info]: frame B:143213 Avg QP:20.71 size: 8974
----------------------------------------------------------------------

Полное имя : The.Bonfire.of.the.Vanities.1990.x264.BDRip.(AVC).0ptimus.mkv
Формат : Matroska
Версия формата : Version 4 / Version 2
Размер файла : 3,03 Гбайт
Продолжительность : 2 ч. 5 м.
Общий поток : 3463 Кбит/сек
Название фильма : Костер тщеславий | The Bonfire of the Vanities [1990] -=BDRip (AVC) 0ptimus=-
Дата кодирования : UTC 2013-11-29 08:35:55
Программа кодирования : mkvmerge v6.1.0 ('Old Devil') built on Mar 2 2013 14:32:37
Библиотека кодирования : libebml v1.3.0 + libmatroska v1.4.0

Видео
Идентификатор : 1
Формат : AVC
Формат/Информация : Advanced Video Codec
Профиль формата : High@L4.1
Параметр CABAC формата : Да
Параметр ReFrames формата : 9 кадров
Идентификатор кодека : V_MPEG4/ISO/AVC
Продолжительность : 2 ч. 5 м.
Битрейт : 2500 Кбит/сек
Ширина : 1024 пикселя
Высота : 576 пикселей
Соотношение сторон : 16:9
Частота кадров : 23,976 кадра/сек
Цветовое пространство : YUV
Субдискретизация насыщенности : 4:2:0
Битовая глубина : 8 бит
Тип развёртки : Прогрессивная
Бит/(Пиксели*Кадры) : 0.177
Размер потока : 2,13 Гбайт (70%)
Заголовок : Rip by 0ptimus
Библиотека кодирования : x264 core 133 r2334 a3ac64b
Настройки программы : cabac=1 / ref=9 / deblock=1:-3:-3 / analyse=0x3:0x113 / me=umh / subme=10 / psy=1 / psy_rd=1.00:0.20 / mixed_ref=1 / me_range=32 / chroma_me=1 / trellis=2 / 8x8dct=1 / cqm=0 / deadzone=21,11 / fast_pskip=0 / chroma_qp_offset=-3 / threads=3 / lookahead_threads=1 / sliced_threads=0 / nr=0 / decimate=0 / interlaced=0 / bluray_compat=0 / constrained_intra=0 / bframes=8 / b_pyramid=2 / b_adapt=2 / b_bias=0 / direct=3 / weightb=1 / open_gop=0 / weightp=2 / keyint=240 / keyint_min=23 / scenecut=40 / intra_refresh=0 / rc_lookahead=40 / rc=2pass / mbtree=0 / bitrate=2500 / ratetol=1.0 / qcomp=0.60 / qpmin=0 / qpmax=69 / qpstep=4 / cplxblur=20.0 / qblur=0.5 / vbv_maxrate=50000 / vbv_bufsize=50000 / nal_hrd=none / ip_ratio=1.40 / pb_ratio=1.30 / aq=1:1.00
Язык : English

Аудио #1
Идентификатор : 2
Формат : AC-3
Формат/Информация : Audio Coding 3
Расширение режима : CM (complete main)
Идентификатор кодека : A_AC3
Продолжительность : 2 ч. 5 м.
Вид битрейта : Постоянный
Битрейт : 192 Кбит/сек
Каналы : 2 канала
Расположение каналов : Front: L R
Частота : 48,0 КГц
Битовая глубина : 16 бит
Метод сжатия : С потерями
Размер потока : 172 Мбайт (6%)
Заголовок : Дублированный [Варус Видео] AC3 2.0 @ 192 kbps
Язык : Russian

Аудио #2
Идентификатор : 3
Формат : AC-3
Формат/Информация : Audio Coding 3
Расширение режима : CM (complete main)
Идентификатор кодека : A_AC3
Продолжительность : 2 ч. 5 м.
Вид битрейта : Постоянный
Битрейт : 192 Кбит/сек
Каналы : 2 канала
Расположение каналов : Front: L R
Частота : 48,0 КГц
Битовая глубина : 16 бит
Метод сжатия : С потерями
Размер потока : 172 Мбайт (6%)
Заголовок : Многоголосый закадровый [ТНТ/ТВ3] AC3 2.0 @ 192 kbps
Язык : Russian

Аудио #3
Идентификатор : 4
Формат : AC-3
Формат/Информация : Audio Coding 3
Расширение режима : CM (complete main)
Идентификатор кодека : A_AC3
Продолжительность : 2 ч. 5 м.
Вид битрейта : Постоянный
Битрейт : 192 Кбит/сек
Каналы : 2 канала
Расположение каналов : Front: L R
Частота : 48,0 КГц
Битовая глубина : 16 бит
Метод сжатия : С потерями
Размер потока : 172 Мбайт (6%)
Заголовок : Авторский [Василий Горчаков] AC3 2.0 @ 192 kbps
Язык : Russian

Аудио #4
Идентификатор : 5
Формат : AC-3
Формат/Информация : Audio Coding 3
Расширение режима : CM (complete main)
Идентификатор кодека : A_AC3
Продолжительность : 2 ч. 5 м.
Вид битрейта : Постоянный
Битрейт : 192 Кбит/сек
Каналы : 2 канала
Расположение каналов : Front: L R
Частота : 48,0 КГц
Битовая глубина : 16 бит
Метод сжатия : С потерями
Размер потока : 172 Мбайт (6%)
Заголовок : Авторский [Алексей Михалев] AC3 2.0 @ 192 kbps
Язык : Russian

Аудио #5
Идентификатор : 6
Формат : AC-3
Формат/Информация : Audio Coding 3
Расширение режима : CM (complete main)
Идентификатор кодека : A_AC3
Продолжительность : 2 ч. 5 м.
Вид битрейта : Постоянный
Битрейт : 192 Кбит/сек
Каналы : 2 канала
Расположение каналов : Front: L R
Частота : 48,0 КГц
Битовая глубина : 16 бит
Метод сжатия : С потерями
Размер потока : 172 Мбайт (6%)
Заголовок : AC3 2.0 @ 192 kbps
Язык : English

Текст
Идентификатор : 7
Формат : UTF-8
Идентификатор кодека : S_TEXT/UTF8
Идентификатор кодека/Информация : UTF-8 Plain Text
Заголовок : SDH
Язык : English

Меню
00:00:00.000 : en:"Crumby" Job Deion
00:01:33.426 : en:The Man of the Moment (Credits)
00:06:27.845 : en:All Wet, Wrong Number Too
00:12:31.792 : en:Master fo the Universe at Work
00:14:56.562 : en:Master of the Universe at Play
00:16:24.608 : en:A Simple Wrong Turn
00:19:01.223 : en:The Incident
00:23:26.571 : en:Love Nest; Wordy Foreplay
00:26:31.631 : en:White's Court
00:29:50.538 : en:"Steam Control"
00:34:08.004 : en:"Crumby" Job Deion
00:37:47.139 : en:Fallow in a Wallow
00:40:30.761 : en:Albert's Angle
00:43:00.661 : en:Profile of an Honor Student
00:44:29.583 : en:Frantic... and Dead ... and Completely Paranoical!
00:48:58.727 : en:Show Business
00:51:54.027 : en:Abe Weiss Lights Fires
00:55:20.608 : en:Hardly Routine Police Visit
00:58:39.432 : en:Nailing the WASP to the Wall
01:00:02.223 : en:A Fellow Yale Man
01:03:10.661 : en:Bonfire at the Opera
01:09:03.097 : en:Jail and Arraignment
01:15:53.215 : en:Just Dinner
01:21:08.280 : en:Park Avenue Pickets
01:28:51.409 : en:Caroline Spills More Beans
01:32:42.807 : en:Ruskin's Killer Story
01:35:06.492 : en:A Reporter Again
01:38:24.565 : en:"Where Is My Issue?"
01:40:23.892 : en:The Love-Nest Tape
01:42:12.668 : en:Sherman Wired, Maria Wary
01:47:05.252 : en:The Way to the Truth
01:50:58.652 : en:Sherman's Courtroom Ploy
01:56:16.844 : en:White on Justice
02:00:13.623 : en:The Man of the Moment's Compensations
02:01:46.299 : en:End Credits
Релиз от:



Скачать Костер.тщеславий.The.Bonfire.of.the.Vanities.(Брайан.Де.Пальма).[1990.драма.комедия.BDRip-AVC].[Dub]+[MVO]+[AVO]x2+[Sub].torrent без регистрации
Золото ЗОЛОТАЯ РАЗДАЧА! СКАЧАННОЕ НЕ ЗАСЧИТЫВАЕТСЯ! Золото
Дата: Зарегистрирован   [ Тип: внутренний ] Как тут cкачать?
MAGNET ссылка
MAGNET ссылка


Скачать .torrent

31 KB

Статус: проверено DHT
Скачан: торрент - 102 раз, раздача полностью - 1 раз
Размер: 3,03 GB
Оценка:  - (Голосов: 0)
Поблагодарили: 1
Поделиться ссылкой на эту раздачу с друзьями:
В контактеFacebookОдноклассникиTwitterLivejournalМой МирLiveinternet
 

 
Показать сообщения:    


Вы не можете начинать темы
Вы не можете отвечать на сообщения
Вы не можете редактировать свои сообщения
Вы не можете удалять свои сообщения
Вы не можете голосовать в опросах
Вы не можете прикреплять файлы к сообщениям
Вы можете скачивать файлы