Loading...
Error

Скачать Кукольный Полицейский / Dollman (Альберт Пьюн) [1991, фантастика, боевик, триллер, комедия, криминал, HDRip] [AVO] торрент без регистрации

 
Статистика раздачи
Размер:  1,45 GB   |    Скачан:  94 раза
Сидов:  1  [  0 KB/s  ]  
 
Автор Сообщение

Marsianka

[] 

Информация о фильме
Название: Кукольный Полицейский
Оригинальное название: Dollman
Год выхода: 1991
Жанр: фантастика, боевик, триллер, комедия, криминал
Режиссер: Альберт Пьюн
В ролях: Тим Томерсон, Джеки Эрл Хейли, Камала Лопес-Даусон, Умберто Ортиз, Николас Гест, Джадд Омен, Майкл Халсли, Фрэнк Даблдей, Фрэнк Коллисон

О фильме:
За 10 тысяч световых лет от Земли есть некая планета Артурос. Там почти все - как у нас: преступники, скрываясь от полиции, хватают заложников, а полиция, не обращая внимания на заложников, ловит преступников. Правда, оружие на планете Артурос неизмеримо мощнее и страшнее земных аналогов. И медицина ушла гораздо дальше - если судить по тому, что голова без всех остальных частей тела благополучно продолжает существовать и придумывать планы новых преступлений. Но уже не на каком-то там Артуросе, а на очень даже знакомой планете Земля. А в погоню за головой отпраляется немеряной крутости коп. Одна маленькая деталь: рост этого копа - сантиметров эдак 15. Размер имеет значение, скажете вы? Баааааааальшая ошибка.



Страна: США / Full Moon Entertainment
Продолжительность: 01:21:45
Перевод: Авторский одноголосый (Гаврилов)

Файл
Кодек: XviD
Качество: HDRip [Doll Man 1991 1080p BluRay x264-NOSCREENS]
Видео: XviD, 1957 Кбит/с, 720x400
Звук: Русский (AC3, 2 ch, 192 Кбит/с), английский (AC3, 6 ch, 384 Кбит/с)

Семпл
Format : AVI
Format/Info : Audio Video Interleave
File size : 1.45 GiB
Duration : 1h 21mn
Overall bit rate : 2 547 Kbps
Movie name : Kukoljnij.policejskij.1991.XviD.HDRip-MediaClub
Director : -=MediaClub - Odessit=-
Writing application : VirtualDubMod 1.5.10.3 (build 2550/release)
Writing library : VirtualDubMod build 2550/release

Video
ID : 0
Format : MPEG-4 Visual
Format profile : Advanced Simple@L5
Format settings, BVOP : 1
Format settings, QPel : No
Format settings, GMC : No warppoints
Format settings, Matrix : Custom
Codec ID : XVID
Codec ID/Hint : XviD
Duration : 1h 21mn
Bit rate : 1 957 Kbps
Width : 720 pixels
Height : 400 pixels
Display aspect ratio : 16:9
Frame rate : 23.976 fps
Color space : YUV
Chroma subsampling : 4:2:0
Bit depth : 8 bits
Scan type : Progressive
Compression mode : Lossy
Bits/(Pixel*Frame) : 0.283
Stream size : 1.12 GiB (77%)
Writing library : XviD 73

Audio #1
ID : 1
Format : AC-3
Format/Info : Audio Coding 3
Mode extension : CM (complete main)
Codec ID : 2000
Duration : 1h 21mn
Bit rate mode : Constant
Bit rate : 192 Kbps
Channel(s) : 2 channels
Channel positions : Front: L R
Sampling rate : 48.0 KHz
Bit depth : 16 bits
Compression mode : Lossy
Stream size : 112 MiB (8%)
Alignment : Split accross interleaves
Interleave, duration : 42 ms (1.00 video frame)
Interleave, preload duration : 500 ms

Audio #2
ID : 2
Format : AC-3
Format/Info : Audio Coding 3
Mode extension : CM (complete main)
Codec ID : 2000
Duration : 1h 21mn
Bit rate mode : Constant
Bit rate : 384 Kbps
Channel(s) : 6 channels
Channel positions : Front: L C R, Side: L R, LFE
Sampling rate : 48.0 KHz
Bit depth : 16 bits
Compression mode : Lossy
Stream size : 225 MiB (15%)
Alignment : Split accross interleaves
Interleave, duration : 42 ms (1.00 video frame)
Interleave, preload duration : 500 ms
Синхронизация звука kaspr
Релиз от: |



Скачать Кукольный.Полицейский.Dollman.(Альберт.Пьюн).[1991.фантастика.боевик.триллер.комедия.криминал.HDRip].[AVO].torrent без регистрации
Золото ЗОЛОТАЯ РАЗДАЧА! СКАЧАННОЕ НЕ ЗАСЧИТЫВАЕТСЯ! Золото
Дата: Зарегистрирован   [ Тип: внутренний ] Как тут cкачать?
MAGNET ссылка
MAGNET ссылка


Скачать .torrent

15 KB

Статус: проверено DHT
Скачан: торрент - 94 раз, раздача полностью - 6 раз
Размер: 1,45 GB
Оценка:  - (Голосов: 0)
Поблагодарили: 1
Поделиться ссылкой на эту раздачу с друзьями:
В контактеFacebookОдноклассникиTwitterLivejournalМой МирLiveinternet
 

 
Показать сообщения:    


Вы не можете начинать темы
Вы не можете отвечать на сообщения
Вы не можете редактировать свои сообщения
Вы не можете удалять свои сообщения
Вы не можете голосовать в опросах
Вы не можете прикреплять файлы к сообщениям
Вы можете скачивать файлы