Loading...
Error

Скачать Маска / The Mask (Чак Рассел / Chuck Russell) [1994, комедия, фантастика, HDRip] [AVO] (П.Санаев) + [AVO] (В.Горчаков) торрент без регистрации

 
Статистика раздачи
Размер:  1,68 GB   |    Скачан:  252 раза
Сидов:  1  [  0 KB/s  ]  
 
Автор Сообщение

leon030982

[] 

Маска / The Mask


Год выпуска: 1994
Страна: США
Жанр: комедия, фантастика
Продолжительность: 01:41:12
Перевод №1: Авторский (одноголосный) [П.Санаев]
Перевод №2: Авторский (одноголосный) [В.Горчаков]
Субтитры: нет

Режиссер: Чак Рассел / Chuck Russell

В ролях: Джим Керри, Питер Ригерт, Питер Грин, Эми Ясбек, Кэмерон Диаз, Орестес Матасена, Тим Бэгли, Нэнси Фиш, Джонни Уильямс, Рег Э. Кэти
Описание: Скромный, застенчивый служащий банка закомплексован настолько, что чувствует себя неуверенно с красивыми девушками. Волею судьбы к нему попадает волшебная маска, и Стенли Ипкис приобретает способность превращаться в неуязвимое мультяшное существо из забавных комиксов.
Он становится супергероем, готовым бороться с преступностью, как Бэтмен. Итак, днем он по-прежнему скромный и незадачливый служащий, а по ночам - супермен…



Качество: HDRip
Формат: AVI
Видео кодек: XviD
Аудио кодек: AC3
Видео: 688x384 (1.79:1), 23.976 fps, XviD build 73 ~1591 kbps avg, 0.25 bit/pixel
Аудио №1: 48 kHz, AC3 Dolby Digital, 3/2 (L,C,R,l,r) + LFE ch, ~384.00 kbps avg [П.Санаев]
Аудио №2: 48 kHz, AC3 Dolby Digital, 3/2 (L,C,R,l,r) + LFE ch, ~384.00 kbps avg [В.Горчаков]

* Режиссер Чак Расселл заявил, что изначально проект «Маска» затевался как достаточно жесткий фильм ужасов на основе одноименного комикса, однако впоследствии трансформировался в комедию, ставшую бенефисом Джима Керри.
* Герой Джима Керри в обычной жизни был повернут на мультфильмах. Поэтому было принято решение, что, становясь Маской, герой будет изображать различных мультипликационных персонажей. В результате были обыграны такие знаменитые персонажи студии Warner Bros. как Таз, Багз Банни и Пепе Ле Пью.
* Для Кемерон Диаз данная роль стала дебютной. Сейчас же эта актриса уже совсем близка к попаданию в клуб «Двадцатимиллионников», в который уже давно вошел Джим Керри.
* За Кемерон Диаз в картине поет Сьюзан Бойд.
* Сцена, в ходе которой Джим Керри убегает от преследующих его гангстеров и достает использованный презерватив из кармана со словами «Упс, не тот карман», была импровизацией актера.
* Ярко-желтый костюм, в который облачается герой Джима Керри, был подготовлен костюмерами по просьбе актера. Так Джим хотел выразить дань уважения своей матери, сшившей для него похожий костюм для первых проб в кино.
* По первоначальной задумке огромные зубы Маски должны были использоваться лишь для безмолвных сцен. Однако, Джим проявил сноровку и научился разговаривать, используя эти «зубы-переростки», что придало дополнительной эксцентричности его герою.
* В фильме Локи называют «богом зла», каковым он все-таки не является. Но тем не менее, характер Локи передан достаточно верно, двойственную натуру этого трикстера отражают Стэнли (светлая сторона) и его соперник (сторона темная).
General
Complete name : E:\INTERNET\The Mask.1994_HDRip.[AVO](Sanaev)+[AVO](Gor4akov).avi
Format : AVI
Format/Info : Audio Video Interleave
File size : 1.68 GiB
Duration : 1h 41mn
Overall bit rate : 2 374 Kbps
Writing application : VirtualDubMod 1.5.10.3 (build 2550/release)
Writing library : VirtualDubMod build 2550/release

Video
ID : 0
Format : MPEG-4 Visual
Format profile : Advanced Simple@L5
Format settings, BVOP : Yes
Format settings, QPel : No
Format settings, GMC : No warppoints
Format settings, Matrix : Custom
Codec ID : XVID
Codec ID/Hint : XviD
Duration : 1h 41mn
Bit rate : 1 593 Kbps
Width : 688 pixels
Height : 384 pixels
Display aspect ratio : 16:9
Frame rate : 23.976 fps
Color space : YUV
Chroma subsampling : 4:2:0
Bit depth : 8 bits
Scan type : Progressive
Bits/(Pixel*Frame) : 0.251
Stream size : 1.13 GiB (67%)
Writing library : XviD 73

Audio #1
ID : 1
Format : AC-3
Format/Info : Audio Coding 3
Mode extension : CM (complete main)
Codec ID : 2000
Duration : 1h 41mn
Bit rate mode : Constant
Bit rate : 384 Kbps
Channel(s) : 6 channels
Channel positions : Front: L C R, Side: L R, LFE
Sampling rate : 48.0 KHz
Bit depth : 16 bits
Stream size : 278 MiB (16%)
Alignment : Split accross interleaves
Interleave, duration : 42 ms (1.00 video frame)
Interleave, preload duration : 500 ms

Audio #2
ID : 2
Format : AC-3
Format/Info : Audio Coding 3
Mode extension : CM (complete main)
Codec ID : 2000
Duration : 1h 41mn
Bit rate mode : Constant
Bit rate : 384 Kbps
Channel(s) : 6 channels
Channel positions : Front: L C R, Side: L R, LFE
Sampling rate : 48.0 KHz
Bit depth : 16 bits
Stream size : 278 MiB (16%)
Alignment : Split accross interleaves
Interleave, duration : 42 ms (1.00 video frame)
Interleave, preload duration : 500 ms



Скачать Маска.The.Mask.(Чак.Рассел.Chuck.Russell).[1994.комедия.фантастика.HDRip].[AVO].(П.Санаев).+.[AVO].(В.Горчаков).torrent без регистрации
Золото ЗОЛОТАЯ РАЗДАЧА! СКАЧАННОЕ НЕ ЗАСЧИТЫВАЕТСЯ! Золото
Дата: Зарегистрирован   [ Тип: внутренний ] Как тут cкачать?
MAGNET ссылка
MAGNET ссылка


Скачать .torrent

18 KB

Статус: проверено DHT
Скачан: торрент - 252 раз, раздача полностью - 2 раз
Размер: 1,68 GB
Оценка:  4,5 (Голосов: 2)
Поблагодарили: 2
Поделиться ссылкой на эту раздачу с друзьями:
В контактеFacebookОдноклассникиTwitterLivejournalМой МирLiveinternet
 

 
Показать сообщения:    


Вы не можете начинать темы
Вы не можете отвечать на сообщения
Вы не можете редактировать свои сообщения
Вы не можете удалять свои сообщения
Вы не можете голосовать в опросах
Вы не можете прикреплять файлы к сообщениям
Вы можете скачивать файлы