Loading...
Error

Скачать Кедровая бухта / Cedar Cove (сезон 01) (Майкл Скотт) [2013, драма, HDTVRip] [MVO (Victory Films)]+[Original] торрент без регистрации

 
Статистика раздачи
Размер:  6,83 GB   |    Скачан:  126 раз
Сидов:  1  [  0 KB/s  ]  
 
Автор Сообщение

МихаНЕзатор

[] 

Информация о фильме
Название: Кедровая бухта
Оригинальное название: Cedar Cove
Год выхода: 2013
Жанр: драма
Режиссер: Майкл Скотт

В ролях: Кэтрин Изабель, Энди МакДауэлл, Иэн Трейси, Джесси Мосс, Бреннан Эллиотт, Терил Ротери, Дилан Нил, Брендан Мейер, Грейстон Холт, Гари Чок

О фильме: Судья из маленького городка Кедровая Бухта, Оливия Локхарт, постоянно находится в водовороте событий и переживаний. У ее взрослой дочери никак не наладится личная жизнь Джастин опасается открыть свое сердце навстречу большой любви, заменяя ее удобными отношениями. Общественное мнение городка встревожено принятым судьей спорным решением, но, вспоминая всю горечь собственного развода, Оливия на процессе заставляет молодых супругов Яна и Сесилию, подавших на развод после смерти новорожденной дочери, еще раз подумать, прежде чем навсегда расстаться. Судья старается поддержать и свою подругу Грейс, которую бросил муж, причем повел себя настолько непонятно, что его поступок потряс всех родных и знакомых. Мама Оливии, невзирая на свой почтенный возраст, весьма энергичная дама, занялась благородным, но не совсем законным делом.. И вдобавок, сама Оливия готова вновь полюбить, и все так хорошо начиналось Однако ее мужчина что то недоговаривает, а Оливия терпеть не может недомолвок. .



Страна: Канада
Студия: Hallmark Channel
Продолжительность: ~00:42:00 серия
Перевод: Любительский (многоголосый закадровый) [Rg Victory Films]

Файл
Кодек: XviD / MP3
Качество: HDTVRip
Видео: 720x400 (1.80:1), 23.976 fps, XviD MPEG-4 ~1400 kbps avg, ~0.203 bit/pixel
Звук:
Аудио 1: 44.1 kHz, MP3, 2/0 (l,r), 128.00 kbps avg MVO [Victory Films]
Аудио 2: 48.0 kHz, MP3, 2/0 (l,r), 128.00 kbps avg Original
Русские субтитры: есть (на песню в 3 серии)

Торент обновлён, добавлена 14-я серия!
General
Complete name : D:Cedar.Cove.s01e02.HDTVRip.Victory-Films.avi
Format : AVI
Format/Info : Audio Video Interleave
File size : 500 MiB
Duration : 41mn 53s
Overall bit rate : 1 669 Kbps
Writing application : VirtualDubMod 1.5.10.2 (build 2542/release)
Writing library : VirtualDubMod build 2542/release

Video
ID : 0
Format : MPEG-4 Visual
Format profile : Advanced Simple@L5
Format settings, BVOP : 2
Format settings, QPel : No
Format settings, GMC : No warppoints
Format settings, Matrix : Default (H.263)
Codec ID : XVID
Codec ID/Hint : XviD
Duration : 41mn 53s
Bit rate : 1 399 Kbps
Width : 720 pixels
Height : 400 pixels
Display aspect ratio : 16:9
Frame rate : 23.976 fps
Color space : YUV
Chroma subsampling : 4:2:0
Bit depth : 8 bits
Scan type : Progressive
Compression mode : Lossy
Bits/(Pixel*Frame) : 0.203
Stream size : 419 MiB (84%)
Writing library : XviD 1.2.0.dev47 (UTC 2006-11-01)

Audio #1
ID : 1
Format : MPEG Audio
Format version : Version 1
Format profile : Layer 3
Codec ID : 55
Codec ID/Hint : MP3
Duration : 41mn 53s
Bit rate mode : Constant
Bit rate : 128 Kbps
Channel(s) : 2 channels
Sampling rate : 44.1 KHz
Compression mode : Lossy
Stream size : 38.4 MiB (8%)
Alignment : Split accross interleaves
Interleave, duration : 42 ms (1.00 video frame)
Interleave, preload duration : 500 ms
Writing library : LAME3.97
Encoding settings : -m s -V 4 -q 2 -lowpass 17 -b 128

Audio #2
ID : 2
Format : MPEG Audio
Format version : Version 1
Format profile : Layer 3
Codec ID : 55
Codec ID/Hint : MP3
Duration : 41mn 53s
Bit rate mode : Constant
Bit rate : 128 Kbps
Channel(s) : 2 channels
Sampling rate : 48.0 KHz
Compression mode : Lossy
Stream size : 38.4 MiB (8%)
Alignment : Aligned on interleaves
Interleave, duration : 42 ms (1.00 video frame)
Interleave, preload duration : 504 ms
Writing library : LAME3.97
Encoding settings : -m s -V 4 -q 2 -lowpass 17 -b 128
Внимание! Раздача ведётся путём добавления новых серий; при каждом добавлении создаётся новый торрент. Чтобы начать докачку новой серии, пользователям необходимо сделать следующее:
(1) остановить скачивание,
(2) удалить старый торрент у себя из клиента (старые серии удалять не надо),
(3) скачать новый торрент и запустить его у себя в клиенте вместо старого, при этом указать клиенту путь в старую папку куда и должно происходить скачивание новых серий.
Ваш клиент при этом должен произвести хеширование (проверку) старой папки (если не производит сам - помогите ему сделать это), и будет докачивать только те серии которых у вас ещё нет. Старые серии при этом не удаляются, а продолжают раздаваться!
Eсли вы уже удалили старые серии, то предотвратить повторную закачку старых серий можно, отжав галочку в соответствующих местах при запуске нового торрента. По возможности, желательно не удалять старые серии как можно дольше чтобы релизёр не столько продолжал раздавать старые серии, а смог сконцентрироваться на новых.



Скачать Кедровая.бухта.Cedar.Cove.(сезон.01).(Майкл.Скотт).[2013.драма.HDTVRip].[MVO.(Victory.Films)]+[Original].torrent без регистрации
Золото ЗОЛОТАЯ РАЗДАЧА! СКАЧАННОЕ НЕ ЗАСЧИТЫВАЕТСЯ! Золото
Дата: Зарегистрирован   [ Тип: внутренний ] Как тут cкачать?
MAGNET ссылка
MAGNET ссылка


Скачать .torrent

36 KB

Статус: проверено DHT
Скачан: торрент - 126 раз, раздача полностью - 33 раз
Размер: 6,83 GB
Оценка:  - (Голосов: 0)
Поблагодарили: 2
Поделиться ссылкой на эту раздачу с друзьями:
В контактеFacebookОдноклассникиTwitterLivejournalМой МирLiveinternet
 

 

МихаНЕзатор

[] 

Раздача обновлена.
 
Показать сообщения:    


Вы не можете начинать темы
Вы не можете отвечать на сообщения
Вы не можете редактировать свои сообщения
Вы не можете удалять свои сообщения
Вы не можете голосовать в опросах
Вы не можете прикреплять файлы к сообщениям
Вы можете скачивать файлы