Loading...
Error

Скачать Ангелы в Америке / Angels in America [Miniseries] (Майк Николс) [2003, фэнтези, драма, WEB-DL] [720p] 3x[MVO R5, Amedia, Россия]+[AVO (С. Визгунов)]+2x[Original] торрент без регистрации

 
Статистика раздачи
Размер:  14,55 GB   |    Скачан:  131 раз
Сидов:  1  [  0 KB/s  ]  
 
Автор Сообщение

МихаНЕзатор

[] 

Информация о фильме
Название: Ангелы в Америке
Оригинальное название: Angels in America
Год выхода: 2003
Жанр: фэнтези, драма
Режиссер: Майк Николс

В ролях: Аль Пачино, Мэрил Стрип, Эмма Томпсон, Мэри-Луиз Паркер, Джеффри Райт, Джастин Кирк, Бен Шенкман, Патрик Уилсон, Джеймс Кромуэлл, Брайан Маркинсон

О фильме: Рейгановская Америка. Триумф материализма и торжество яппи.
Ангелов в Америке - больше нет. Или это лишь кажется? Удивительным образом переплелись судьбы совершенно разных людей: знаменитого и влиятельного юриста, который узнаёт, что он умирает; его подчинённого молодого, женатого мормона, который понимает, что он, несмотря на все религиозные запреты,- скрытый гомосексуалист; жена мормона, которая под воздействием валиума убегает от жизни в фантасмагорические видения и пары влюблённых молодых людей, один из которых узнает, что болен СПИДом



Страна: США, Италия
Продолжительность: ~ 01:00:00
Перевод: Перевод: Профессиональный (многоголосый закадровый) R5
Перевод 2: Профессиональный (многоголосый закадровый) Amedia
Перевод 2: Профессиональный (многоголосый закадровый) Россия
Перевод 3: Авторский (одноголосый закадровый) Сергей Визгунов

Файл
Кодек: H.264
Качество: WEB-DL 720p
Видео: 1280x720 (16:9), 23.976 fps, ~4000 kbps, ~0.180 bit/pixel
Звук:
Аудио#1: Russian: 48 kHz, AC3, 3/2 (L,C,R,l,r) + LFE ch, ~384.00 kbps avg |Многоголосый, закадровый, R5|
Аудио#2: Russian: 48 kHz, AC3, 2/0 (L,R) ch, ~192.00 kbps avg |Многоголосый, закадровый, Amedia|
Аудио#3: Russian: 48 kHz, AC3, 2/0 (L,R) ch, ~192.00 kbps avg |Многоголосый, закадровый, Россия|
Аудио#4: Russian: 48 kHz, AC3, 2/0 (L,R) ch, ~192.00 kbps avg |Одноголосый, закадровый, Визгунов|
Аудио#5: English: 48 kHz, AC3, 3/2 (L,C,R,l,r) + LFE ch, ~384.00 kbps avg |Original, R1|
Аудио#6: English: 48 kHz, AAC, 2/0 (L,R) ch, ~112.00 kbps avg |Original, Itunes|

Релиз от: by markinscor

Общее
Уникальный идентификатор : 186555065915174932691788114332526950420 (0x8C5932E2BE18DAF1A355B9178815B814)
Полное имя : Angels.in.America.[Miniseries].2003.720p.WEB-DL.4xRus.2xEngAngels.in.America.Part1.2003.720p.WEB-DL.4xRus.2xEng.mkv
Формат : Matroska
Версия формата : Version 2
Размер файла : 2,55 Гбайт
Продолжительность : 1 ч. 5 м.
Общий поток : 5536 Кбит/сек
Дата кодирования : UTC 2013-12-01 16:14:46
Программа кодирования : mkvmerge v5.8.0 ('No Sleep / Pillow') built on Sep 2 2012 15:37:04
Библиотека кодирования : libebml v1.2.3 + libmatroska v1.3.0

Видео
Идентификатор : 1
Формат : AVC
Формат/Информация : Advanced Video Codec
Профиль формата : High@L3.1
Параметр CABAC формата : Нет
Параметр ReFrames формата : 2 кадра
Идентификатор кодека : V_MPEG4/ISO/AVC
Продолжительность : 1 ч. 5 м.
Ширина : 1280 пикселей
Высота : 720 пикселей
Соотношение сторон : 16:9
Режим частоты кадров : Постоянный
Частота кадров : 23,976 кадра/сек
Цветовое пространство : YUV
Субдискретизация насыщенности : 4:2:0
Битовая глубина : 8 бит
Тип развёртки : Прогрессивная
Язык : English
Default : Да
Forced : Нет
Основные цвета : BT.709
Характеристики трансфера : BT.709
Коэффициенты матрицы : BT.709

Аудио #1
Идентификатор : 2
Формат : AC-3
Формат/Информация : Audio Coding 3
Расширение режима : CM (complete main)
Параметр Endianness формата : Big
Идентификатор кодека : A_AC3
Продолжительность : 1 ч. 5 м.
Вид битрейта : Постоянный
Битрейт : 384 Кбит/сек
Каналы : 6 каналов
Расположение каналов : Front: L C R, Side: L R, LFE
Частота : 48,0 КГц
Битовая глубина : 16 бит
Метод сжатия : С потерями
Размер потока : 181 Мбайт (7%)
Заголовок : MVO R5
Язык : Russian
Default : Да
Forced : Нет

Аудио #2
Идентификатор : 3
Формат : AC-3
Формат/Информация : Audio Coding 3
Расширение режима : CM (complete main)
Параметр Endianness формата : Big
Идентификатор кодека : A_AC3
Продолжительность : 1 ч. 5 м.
Вид битрейта : Постоянный
Битрейт : 192 Кбит/сек
Каналы : 2 канала
Расположение каналов : Front: L R
Частота : 48,0 КГц
Битовая глубина : 16 бит
Метод сжатия : С потерями
Размер потока : 90,5 Мбайт (3%)
Заголовок : MVO Amedia
Язык : Russian
Default : Нет
Forced : Нет

Аудио #3
Идентификатор : 4
Формат : AC-3
Формат/Информация : Audio Coding 3
Расширение режима : CM (complete main)
Параметр Endianness формата : Big
Идентификатор кодека : A_AC3
Продолжительность : 1 ч. 5 м.
Вид битрейта : Постоянный
Битрейт : 192 Кбит/сек
Каналы : 2 канала
Расположение каналов : Front: L R
Частота : 48,0 КГц
Битовая глубина : 16 бит
Метод сжатия : С потерями
Размер потока : 90,5 Мбайт (3%)
Заголовок : MVO Россия
Язык : Russian
Default : Нет
Forced : Нет

Аудио #4
Идентификатор : 5
Формат : AC-3
Формат/Информация : Audio Coding 3
Расширение режима : CM (complete main)
Параметр Endianness формата : Big
Идентификатор кодека : A_AC3
Продолжительность : 1 ч. 5 м.
Вид битрейта : Постоянный
Битрейт : 192 Кбит/сек
Каналы : 2 канала
Расположение каналов : Front: L R
Частота : 48,0 КГц
Битовая глубина : 16 бит
Метод сжатия : С потерями
Размер потока : 90,5 Мбайт (3%)
Заголовок : AVO Визгунов
Язык : Russian
Default : Нет
Forced : Нет

Аудио #5
Идентификатор : 6
Формат : AC-3
Формат/Информация : Audio Coding 3
Расширение режима : CM (complete main)
Параметр Endianness формата : Big
Идентификатор кодека : A_AC3
Продолжительность : 1 ч. 5 м.
Вид битрейта : Постоянный
Битрейт : 384 Кбит/сек
Каналы : 6 каналов
Расположение каналов : Front: L C R, Side: L R, LFE
Частота : 48,0 КГц
Битовая глубина : 16 бит
Метод сжатия : С потерями
Размер потока : 181 Мбайт (7%)
Заголовок : Original "R1"
Язык : English
Default : Нет
Forced : Нет

Аудио #6
Идентификатор : 7
Формат : AAC
Формат/Информация : Advanced Audio Codec
Профиль формата : LC
Идентификатор кодека : A_AAC
Продолжительность : 1 ч. 5 м.
Каналы : 2 канала
Расположение каналов : Front: L R
Частота : 48,0 КГц
Метод сжатия : С потерями
Заголовок : Original "Itunes"
Язык : English
Default : Нет
Forced : Нет



Скачать Ангелы.в.Америке.Angels.in.America.[Miniseries].(Майк.Николс).[2003.фэнтези.драма.WEB-DL].[720p].3x[MVO.R5.Amedia.Россия]+[AVO.(С.Визгунов)]+2x[Original].torrent без регистрации
Золото ЗОЛОТАЯ РАЗДАЧА! СКАЧАННОЕ НЕ ЗАСЧИТЫВАЕТСЯ! Золото
Дата: Зарегистрирован   [ Тип: внутренний ] Как тут cкачать?
MAGNET ссылка
MAGNET ссылка


Скачать .torrent

19 KB

Статус: проверено DHT
Скачан: торрент - 131 раз, раздача полностью - 7 раз
Размер: 14,55 GB
Оценка:  - (Голосов: 0)
Поблагодарили: 0
Поделиться ссылкой на эту раздачу с друзьями:
В контактеFacebookОдноклассникиTwitterLivejournalМой МирLiveinternet
 

 
Показать сообщения:    


Вы не можете начинать темы
Вы не можете отвечать на сообщения
Вы не можете редактировать свои сообщения
Вы не можете удалять свои сообщения
Вы не можете голосовать в опросах
Вы не можете прикреплять файлы к сообщениям
Вы можете скачивать файлы