Loading...
Error

Скачать Доберман / Dobermann (Жан Коунен / Jan Kounen) [1997, боевик, криминал, драма, HDRip] [VO] (М.Яроцкий (kyberpunk)) + [AVO] (Л.Володарский) торрент без регистрации

 
Статистика раздачи
Размер:  1,78 GB   |    Скачан:  135 раз
Сидов:  1  [  0 KB/s  ]  
 
Автор Сообщение

leon030982

[] 

Доберман / Dobermann



Год выхода: 1997
Страна: Франция
Жанр: боевик, криминал, драма
Продолжительность: 01:43:06
Перевод №1: Одноголосный (закадровый) [М.Яроцкий (kyberpunk)]
Перевод №2: Авторский (одноголосый, закадровый) [Л.Володарский]
Субтитры: нет

Режиссер: Жан Коунен / Jan Kounen

В ролях: Венсан Кассель, Чеки Карио, Моника Беллуччи, Антуан Баслер, Доминик Беттенфельд, Паскаль Демолон, Марк Дюре, Ромен Дюри, Франсуа Леванталь, Иван Мерат-Барбофф

О фильме: Герою фильма уже в день крестин один из друзей отца дарит Магнум-357. Мальчик вырос и стал супернаглым и дерзким грабителем по кличке Доберман. 357-й магнум заменили самые современные виды огнестрельного оружия, включая даже небольшие ракеты, которыми можно стрелять, навинчивая их на ствол пистолета.
Вместе с ним всегда его глухая подруга, спокойно красящая ногти во время ограбления инкассаторов. Все члены банды еще те типажи! Ловит же его жестокий полицейский рядом с которым Грязный Гарри просто бойскаут. Он одержимо хочет поймать или убить Добермана и для достижения своей цели готов пойти на все и даже преступить закон.




Качество: HDRip
Формат: AVI
Видео кодек: XviD
Аудио кодек : AC3
Видео: 720x304 (2.37:1), 24.000 fps, XviD build 50 ~1556 kbps avg, 0.30 bit/pixel
Аудио №1: 48 kHz, AC3 Dolby Digital, 3/2 (L,C,R,l,r) + LFE ch, ~448.00 kbps avg [М.Яроцкий (kyberpunk)]
Аудио №2: 48 kHz, AC3 Dolby Digital, 3/2 (L,C,R,l,r) + LFE ch, ~448.00 kbps avg [Л.Володарский]
Спонсор перевода [М.Яроцкий (kyberpunk)] --- будулайроманов. Работа со звуком и сборка дороги - Переводман
Рип с дорогой Володарского от Scarabey
General
Complete name : E:\INTERNET\Dobermann.1997.HDRip.VO[kyberpunk]+AVO[Volodarskiy].avi
Format : AVI
Format/Info : Audio Video Interleave
File size : 1.78 GiB
Duration : 1h 43mn
Overall bit rate : 2 467 Kbps
Writing application : VirtualDubMod 1.5.10.3 (build 2550/release)
Writing library : VirtualDubMod build 2550/release

Video
ID : 0
Format : MPEG-4 Visual
Format profile : Advanced Simple@L5
Format settings, BVOP : Yes
Format settings, QPel : No
Format settings, GMC : No warppoints
Format settings, Matrix : Custom
Codec ID : XVID
Codec ID/Hint : XviD
Duration : 1h 43mn
Bit rate : 1 557 Kbps
Width : 720 pixels
Height : 304 pixels
Display aspect ratio : 2.35:1
Frame rate : 24.000 fps
Color space : YUV
Chroma subsampling : 4:2:0
Bit depth : 8 bits
Scan type : Progressive
Bits/(Pixel*Frame) : 0.296
Stream size : 1.12 GiB (63%)
Writing library : XviD 1.2.1 (UTC 2008-12-04)

Audio #1
ID : 1
Format : AC-3
Format/Info : Audio Coding 3
Mode extension : CM (complete main)
Codec ID : 2000
Duration : 1h 43mn
Bit rate mode : Constant
Bit rate : 448 Kbps
Channel(s) : 6 channels
Channel positions : Front: L C R, Side: L R, LFE
Sampling rate : 48.0 KHz
Bit depth : 16 bits
Stream size : 330 MiB (18%)
Alignment : Split accross interleaves
Interleave, duration : 42 ms (1.00 video frame)
Interleave, preload duration : 500 ms

Audio #2
ID : 2
Format : AC-3
Format/Info : Audio Coding 3
Mode extension : CM (complete main)
Codec ID : 2000
Duration : 1h 43mn
Bit rate mode : Constant
Bit rate : 448 Kbps
Channel(s) : 6 channels
Channel positions : Front: L C R, Side: L R, LFE
Sampling rate : 48.0 KHz
Bit depth : 16 bits
Stream size : 330 MiB (18%)
Alignment : Aligned on interleaves
Interleave, duration : 42 ms (1.00 video frame)
Interleave, preload duration : 512 ms



Скачать Доберман.Dobermann.(Жан.Коунен.Jan.Kounen).[1997.боевик.криминал.драма.HDRip].[VO].(М.Яроцкий.(kyberpunk)).+.[AVO].(Л.Володарский).torrent без регистрации
Золото ЗОЛОТАЯ РАЗДАЧА! СКАЧАННОЕ НЕ ЗАСЧИТЫВАЕТСЯ! Золото
Дата: Зарегистрирован   [ Тип: внутренний ] Как тут cкачать?
MAGNET ссылка
MAGNET ссылка


Скачать .torrent

19 KB

Статус: проверено DHT
Скачан: торрент - 135 раз, раздача полностью - 45 раз
Размер: 1,78 GB
Оценка:  5 (Голосов: 2)
Поблагодарили: 3
Поделиться ссылкой на эту раздачу с друзьями:
В контактеFacebookОдноклассникиTwitterLivejournalМой МирLiveinternet
 

 

vladbelak

[] 

ay
 
Показать сообщения:    


Вы не можете начинать темы
Вы не можете отвечать на сообщения
Вы не можете редактировать свои сообщения
Вы не можете удалять свои сообщения
Вы не можете голосовать в опросах
Вы не можете прикреплять файлы к сообщениям
Вы можете скачивать файлы