Loading...
Error

Скачать Возвращение живых мертвецов 2 / The Return of the Living Dead Part II (Кен Видерхорн) [1988, ужасы, комедия, WEB-DLRip-AVC] [MVO]+[AVO]x2+[Sub] торрент без регистрации

 
Статистика раздачи
Размер:  1,45 GB   |    Скачан:  147 раз
Сидов:  1  [  0 KB/s  ]  
 
Автор Сообщение

Marsianka

[] 

Информация о фильме
Название: Возвращение живых мертвецов 2
Оригинальное название: The Return of the Living Dead Part II
Год выхода: 1988
Жанр: ужасы, комедия
Режиссер: Кен Видерхорн
В ролях: Майкл Кенворти, Марша Дитлейн, Тор Ван Линген, Том Мэтьюс, Джеймс Карен

О фильме:
Мертвые не любят «прохлаждаться» под землёй, в особенности в фильмах ужасов. И вегетарианская диета им совсем не подходит. Именно поэтому кровожадные зомби решают в очередной раз полакомиться человеческими мозгами.
Новое поколение зомби появилось на свет из-за аварии армейского грузовика, перевозившего нервно-паралитический газ. Зловещие зелёные испарения доползли до местного кладбища и оживили сотни проголодавшихся покойников, которые с энтузиазмом вышли на охоту!
Ожившие мертвецы решают устроить пир, «приготовив», «в качестве «главного блюда», беспечных жителей местного городка! Мёртвые очень не любят живых, и их месть людям будет беспощадна и ужасна!




Страна: США
Продолжительность: 01:29:23
Перевод: Профессиональный (Многоголосый закадровый)(Премьер Видео Фильм), Авторский (одноголосый закадровый)(Ю.Живов), Авторский (одноголосый, закадровый)(А.Гаврилов)

Файл
Кодек: H.264
Качество: WEB-DLRip-AVC
Видео: 1024 x 576; 23,976 fps; 1742 Kbps
Аудио 1: Русский, AC3 2.0 192 Kbps 48,0 КГц (MVO)(с VHS)
Аудио 2: Русский, AC3 2.0 192 Kbps 48,0 КГц (Живов)
Аудио 3: Русский, AC3 2.0 192 Kbps 48,0 КГц (Гаврилов)(с VHS)
Субтитры: русские, английские
Format : Matroska
Format version : Version 2
File size : 1.45 GiB
Duration : 1h 29mn
Overall bit rate : 2 319 Kbps
Movie name : Return of the Living Dead Part II
Encoded date : UTC 2013-12-01 16:10:48
Writing application : mkvmerge v5.3.0 ('I could have danced') built on Feb 9 2012 10:38:07
Writing library : libebml v1.2.3 + libmatroska v1.3.0

Video
ID : 1
Format : AVC
Format/Info : Advanced Video Codec
Format profile : High@L4.1
Format settings, CABAC : Yes
Format settings, ReFrames : 5 frames
Codec ID : V_MPEG4/ISO/AVC
Duration : 1h 29mn
Bit rate : 1 742 Kbps
Width : 1 024 pixels
Height : 576 pixels
Display aspect ratio : 16:9
Frame rate mode : Constant
Frame rate : 23.976 fps
Color space : YUV
Chroma subsampling : 4:2:0
Bit depth : 8 bits
Scan type : Progressive
Bits/(Pixel*Frame) : 0.123
Stream size : 1.06 GiB (73%)
Writing library : x264 core 130 r2273 b3065e6
Encoding settings : cabac=1 / ref=5 / deblock=1:-1:-1 / analyse=0x3:0x133 / me=umh / subme=10 / psy=1 / psy_rd=1.01:0.05 / mixed_ref=1 / me_range=32 / chroma_me=1 / trellis=2 / 8x8dct=1 / cqm=0 / deadzone=21,11 / fast_pskip=1 / chroma_qp_offset=-3 / threads=12 / lookahead_threads=1 / sliced_threads=0 / nr=0 / decimate=1 / interlaced=0 / bluray_compat=0 / constrained_intra=0 / bframes=5 / b_pyramid=2 / b_adapt=2 / b_bias=0 / direct=3 / weightb=1 / open_gop=0 / weightp=2 / keyint=240 / keyint_min=23 / scenecut=40 / intra_refresh=0 / rc_lookahead=100 / rc=2pass / mbtree=1 / bitrate=1742 / ratetol=1.0 / qcomp=0.60 / qpmin=0 / qpmax=69 / qpstep=4 / cplxblur=20.0 / qblur=0.5 / ip_ratio=1.40 / aq=1:1.00
Language : English
Default : Yes
Forced : No

Audio #1
ID : 2
Format : AC-3
Format/Info : Audio Coding 3
Mode extension : CM (complete main)
Format settings, Endianness : Big
Codec ID : A_AC3
Duration : 1h 29mn
Bit rate mode : Constant
Bit rate : 192 Kbps
Channel count : 2 channels
Channel positions : Front: L R
Sampling rate : 48.0 KHz
Bit depth : 16 bits
Compression mode : Lossy
Stream size : 123 MiB (8%)
Title : Prem'er Video Film 2.0 192 kbps
Language : Russian
Default : No
Forced : No

Audio #2
ID : 3
Format : AC-3
Format/Info : Audio Coding 3
Format profile : Dolby Digital
Mode extension : CM (complete main)
Format settings, Endianness : Big
Codec ID : A_AC3
Duration : 1h 29mn
Bit rate mode : Constant
Bit rate : 192 Kbps
Channel count : 2 channels
Channel positions : Front: L R
Sampling rate : 48.0 KHz
Bit depth : 16 bits
Compression mode : Lossy
Stream size : 123 MiB (8%)
Title : Zhivov AC3 2.0 192 kbps
Language : Russian
Default : No
Forced : No

Audio #3
ID : 4
Format : AC-3
Format/Info : Audio Coding 3
Mode extension : CM (complete main)
Format settings, Endianness : Big
Codec ID : A_AC3
Duration : 1h 29mn
Bit rate mode : Constant
Bit rate : 192 Kbps
Channel count : 2 channels
Channel positions : Front: L R
Sampling rate : 48.0 KHz
Bit depth : 16 bits
Compression mode : Lossy
Stream size : 123 MiB (8%)
Title : Gavrilov AC3 2.0 192 kbps
Language : Russian
Default : No
Forced : No

Text #1
ID : 5
Format : UTF-8
Codec ID : S_TEXT/UTF8
Codec ID/Info : UTF-8 Plain Text
Title : var.1
Language : Russian
Default : No
Forced : No

Text #2
ID : 6
Format : UTF-8
Codec ID : S_TEXT/UTF8
Codec ID/Info : UTF-8 Plain Text
Title : var.2 Theatrical
Language : Russian
Default : No
Forced : No

Text #3
ID : 7
Format : UTF-8
Codec ID : S_TEXT/UTF8
Codec ID/Info : UTF-8 Plain Text
Language : English
Default : No
Forced : No

Menu
00:00:00.000 : en:Credits.
00:03:16.000 : en:Finders keepers.
00:08:04.000 : en:No respect for the dead.
00:11:48.000 : en:Unholy smoke.
00:18:37.000 : en:Slime time.
00:23:31.000 : en:Out and about.
00:29:57.000 : en:Calling for help.
00:34:16.000 : en:Head trauma.
00:37:29.000 : en:House party.
00:41:49.000 : en:Family meal.
00:43:10.000 : en:Hands off.
00:47:17.000 : en:Where is everybody.
00:52:05.000 : en:Armed and dead serious.
00:55:08.000 : en:Not all together.
00:59:12.000 : en:Ed, quit it.
01:02:44.000 : en:Not into dead guys.
01:06:30.000 : en:We'll give'em brains.
01:10:52.000 : en:Chow time.
01:12:53.000 : en:Gate crashers.
01:17:15.000 : en:Jesse at the wheel.
01:20:24.000 : en:Fried zombies.
01:24:12.000 : en:You win.
01:25:32.000 : en:End Credits.



Скачать Возвращение.живых.мертвецов.2.The.Return.of.the.Living.Dead.Part.II.(Кен.Видерхорн).[1988.ужасы.комедия.WEB-DLRip-AVC].[MVO]+[AVO]x2+[Sub].torrent без регистрации
Золото ЗОЛОТАЯ РАЗДАЧА! СКАЧАННОЕ НЕ ЗАСЧИТЫВАЕТСЯ! Золото
Дата: Зарегистрирован   [ Тип: внутренний ] Как тут cкачать?
MAGNET ссылка
MAGNET ссылка


Скачать .torrent

15 KB

Статус: проверено DHT
Скачан: торрент - 147 раз, раздача полностью - 50 раз
Размер: 1,45 GB
Оценка:  - (Голосов: 0)
Поблагодарили: 0
Поделиться ссылкой на эту раздачу с друзьями:
В контактеFacebookОдноклассникиTwitterLivejournalМой МирLiveinternet
 

 
Показать сообщения:    


Вы не можете начинать темы
Вы не можете отвечать на сообщения
Вы не можете редактировать свои сообщения
Вы не можете удалять свои сообщения
Вы не можете голосовать в опросах
Вы не можете прикреплять файлы к сообщениям
Вы можете скачивать файлы