Loading...
Error

Скачать Побег / La Carapate (Жерар Ури) [1978, комедия, криминал, HDRip] [Dub] торрент без регистрации

 
Статистика раздачи
Размер:  1,46 GB   |    Скачан:  167 раз
Сидов:  4  [  0 KB/s  ]  
 
Автор Сообщение

Marsianka

[] 

Побег / La Carapate
Год выпуска: 1978
Страна: Франция
Студии: BBC Films, Lip Sync Productions, The Weinstein Company LLC
Жанр: комедия, криминал
Продолжительность: 01:39:51
Перевод: Профессиональный (дублированный) Советский
Cубтитры: нет
Оригинальная аудиодорожка: нет

Режиссер: Жерар Ури / Gerard Oury

В ролях: Пьер Ришар / Pierre Richard, Виктор Лану / Victor Lanoux, Жак Франц / Jacques Frantz, Жен-Пьер Дарра / Jean-Pierre Darras, Робер Дальбан / Robert Dalban, Клод Броссе / Claude Brosset, Раймон Бюссьер / Raymond Bussieres, Клэр Ришар / Claire Richard, Бланш Равалео / Blanche Ravaleo, Бернар Гранже / Bernard Granger, Адриен Кайла-Легран / Adrien Cayla-Legrand...

Описание: Адвокат Дюрок (Пьер Ришар) навещает своего клиента в камере смертников. Внезапно начинается массовый бунт, и недотепа бежит вместе с остальными заключенными, спасаясь от пуль полицейских, вместе со своим подзащитным Голаром (Лану), которого полиция считает зачинщиком всех беспорядков. Бесчисленные погони, веселые и пикантные ситуации, общая опасность сближают героев и они становятся друзьями...



Качество: HDRip - Исходник WEB-DL 720p
Формат: AVI
Видео кодек: XviD
Аудио кодек: AC3
Видео: 672x400 (1.68:1), 24.000 fps, XviD build 73 ~1886 kbps avg, 0.29 bit/pixel
Аудио: 48 kHz, AC3 Dolby Digital, 2/0 (L,R) ch, ~192 kbps
Раздача от:
D:Мои рипыLa.carapate.1978.HDRip.dexter_lex.avi
General
Complete name : D:Мои рипыLa.carapate.1978.HDRip.dexter_lex.avi
Format : AVI
Format/Info : Audio Video Interleave
File size : 1.46 GiB
Duration : 1h 39mn
Overall bit rate : 2 088 Kbps
Writing application : VirtualDubMod 1.5.10.3 | www.virtualdub-fr.org || (build 2550/release)
Writing library : VirtualDubMod build 2550/release
Video #0
ID : 0
Format : MPEG-4 Visual
Format profile : Advanced Simple@L5
Format settings, BVOP : 1
Format settings, QPel : No
Format settings, GMC : No warppoints
Format settings, Matrix : Custom
Codec ID : XVID
Codec ID/Hint : XviD
Duration : 1h 39mn
Bit rate : 1 886 Kbps
Width : 672 pixels
Height : 400 pixels
Display aspect ratio : 1.680
Frame rate : 24.000 fps
Color space : YUV
Chroma subsampling : 4:2:0
Bit depth : 8 bits
Scan type : Progressive
Compression mode : Lossy
Bits/(Pixel*Frame) : 0.292
Stream size : 1.32 GiB (90%)
Writing library : XviD 73
Audio #1
ID : 1
Format : AC-3
Format/Info : Audio Coding 3
Format profile : Dolby Digital
Mode extension : CM (complete main)
Codec ID : 2000
Duration : 1h 39mn
Bit rate mode : Constant
Bit rate : 192 Kbps
Channel(s) : 2 channels
Channel positions : Front: L R
Sampling rate : 48.0 KHz
Bit depth : 16 bits
Compression mode : Lossy
Stream size : 137 MiB (9%)
Alignment : Split accross interleaves
Interleave, duration : 42 ms (1.00 video frame)
Interleave, preload duration : 500 ms



Скачать Побег.La.Carapate.(Жерар.Ури).[1978.комедия.криминал.HDRip].[Dub].torrent без регистрации
Золото ЗОЛОТАЯ РАЗДАЧА! СКАЧАННОЕ НЕ ЗАСЧИТЫВАЕТСЯ! Золото
Дата: Зарегистрирован   [ Тип: внешний ] Как тут cкачать?
MAGNET ссылка
MAGNET ссылка


Скачать .torrent

15 KB

Статус: проверено DHT
Скачан: торрент - 167 раз, раздача полностью - 23 раз
Размер: 1,46 GB
Оценка:  5 (Голосов: 1)
Поблагодарили: 1
Поделиться ссылкой на эту раздачу с друзьями:
В контактеFacebookОдноклассникиTwitterLivejournalМой МирLiveinternet
 

 
Показать сообщения:    


Вы не можете начинать темы
Вы не можете отвечать на сообщения
Вы не можете редактировать свои сообщения
Вы не можете удалять свои сообщения
Вы не можете голосовать в опросах
Вы не можете прикреплять файлы к сообщениям
Вы можете скачивать файлы