Loading...
Error

Скачать Китайская история призраков / Sinnui yauwan / A Chinese Ghost Story (Сиу-Тунг Чинг) [1987, ужасы, фэнтези, боевик, триллер, мелодрама, комедия, BDRip] [DVO]+[Sub] торрент без регистрации

 
Статистика раздачи
Размер:  1,88 GB   |    Скачан:  100 раз
Сидов:  1  [  0 KB/s  ]  
 
Автор Сообщение

Marsianka

[] 

Название: Китайская история призраков
Оригинальное название: Sinnui yauwan (A Chinese Ghost Story)
Год выпуска: 1987
Жанр: ужасы, фэнтези, боевик, триллер, мелодрама, комедия
Выпущено: Гонконг, Cinema City Film Productions, Film Workshop Ltd.
Режиссер: Сиу-Тунг Чинг
В ролях: Лесли Чун, Джои Ван, Ма Ву, Давей Ху, Джин Цзянь, Вэй Лам, Сиу-Минг Лау, Элвис Цуй, Джин Вонг

О фильме: Странствующий учёный Лин забредает, на ночь глядя, в волшебный лес, где встречает девушку-привидение по имени Сиан. Мимолётная встреча становится началом бурного романа, но у Сиан есть злобная наставница, которая не одобряет романов между людьми и призраками. Даже защитник Лина, отважный меченосец-таоист, с которым юноша познакомился по дороге, хоть и сочувствует влюблённым, также считает, что их любовь обречена..

Качество: BDRip
Видео: XviD, 1901 Kбит/с, 720x384
Аудио: Русский, китайский (AC3, 6 ch, 448 Кбит/с)
Размер: 1.88 ГБ
Продолжительность: 01:35:41
Перевод: Профессиональный двухголосый
Субтитры: Русские

Исходник: krakatuq (Кинозал)

Сравнение с исходником

Общее
Полное имя : E:VideoKitajskaja.istorija.prizrakov.1987.XviD.BDRipKitajskaja.istorija.prizrakov.1987.Original.chi.ac3
Формат : AC-3
Формат/Информация : Audio Coding 3
Размер файла : 307 Мбайт
Продолжительность : 1 ч. 35 м.
Режим общего битрейта : Постоянный
Общий поток : 448 Кбит/сек

Аудио
Формат : AC-3
Формат/Информация : Audio Coding 3
Расширение режима : CM (complete main)
Параметр Endianness формата : Big
Продолжительность : 1 ч. 35 м.
Вид битрейта : Постоянный
Битрейт : 448 Кбит/сек
Каналы : 6 каналов
Расположение каналов : Front: L C R, Side: L R, LFE
Частота : 48,0 КГц
Битовая глубина : 16 бит
Метод сжатия : С потерями
Размер потока : 307 Мбайт (100%)

Общее
Полное имя : E:VideoKitajskaja.istorija.prizrakov.1987.XviD.BDRipKitajskaja.istorija.prizrakov.1987.rus.srt
Размер файла : 129 Кбайт

Общее
Полное имя : E:VideoKitajskaja.istorija.prizrakov.1987.XviD.BDRipKitajskaja.istorija.prizrakov.1987.XviD.BDRip.avi
Формат : AVI
Формат/Информация : Audio Video Interleave
Размер файла : 1,58 Гбайт
Продолжительность : 1 ч. 35 м.
Общий поток : 2358 Кбит/сек
Программа кодирования : VirtualDubMod 1.5.10.2 (build 2540/release)
Библиотека кодирования : VirtualDubMod build 2540/release

Видео
Идентификатор : 0
Формат : MPEG-4 Visual
Профиль формата : Advanced Simple@L5
Параметр BVOP формата : 1
Параметр QPel формата : Нет
Параметр GMC формата : Без точки перехода
Параметр матрицы формата : Default (H.263)
Режим смешивания : Сжатый битовый поток
Идентификатор кодека : XVID
Идентификатор кодека/Подсказка : XviD
Продолжительность : 1 ч. 35 м.
Битрейт : 1901 Кбит/сек
Ширина : 720 пикселей
Высота : 384 пикселя
Соотношение сторон : 1,85:1
Частота кадров : 24,000 кадра/сек
Цветовое пространство : YUV
Субдискретизация насыщенности : 4:2:0
Битовая глубина : 8 бит
Тип развёртки : Прогрессивная
Метод сжатия : С потерями
Бит/(Пиксели*Кадры) : 0.286
Размер потока : 1,27 Гбайт (81%)
Библиотека кодирования : XviD 1.2.1 (UTC 2008-12-04)

Аудио
Идентификатор : 1
Формат : AC-3
Формат/Информация : Audio Coding 3
Расширение режима : CM (complete main)
Параметр Endianness формата : Big
Идентификатор кодека : 2000
Продолжительность : 1 ч. 35 м.
Вид битрейта : Постоянный
Битрейт : 448 Кбит/сек
Каналы : 6 каналов
Расположение каналов : Front: L C R, Side: L R, LFE
Частота : 48,0 КГц
Битовая глубина : 16 бит
Метод сжатия : С потерями
Размер потока : 307 Мбайт (19%)
Выравнивание : Разделение по промежуткам
Продолжительность промежутка : 42 мс. (1,00 видеокадр)
Время предзагрузки промежутка : 500 мс.



Скачать Китайская.история.призраков.Sinnui.yauwan.A.Chinese.Ghost.Story.(Сиу-Тунг.Чинг).[1987.ужасы.фэнтези.боевик.триллер.мелодрама.комедия.BDRip].[DVO]+[Sub].torrent без регистрации
Золото ЗОЛОТАЯ РАЗДАЧА! СКАЧАННОЕ НЕ ЗАСЧИТЫВАЕТСЯ! Золото
Дата: Зарегистрирован   [ Тип: внутренний ] Как тут cкачать?
MAGNET ссылка
MAGNET ссылка


Скачать .torrent

19 KB

Статус: проверено DHT
Скачан: торрент - 100 раз, раздача полностью - 0 раз
Размер: 1,88 GB
Оценка:  - (Голосов: 0)
Поблагодарили: 0
Поделиться ссылкой на эту раздачу с друзьями:
В контактеFacebookОдноклассникиTwitterLivejournalМой МирLiveinternet
 

 
Показать сообщения:    


Вы не можете начинать темы
Вы не можете отвечать на сообщения
Вы не можете редактировать свои сообщения
Вы не можете удалять свои сообщения
Вы не можете голосовать в опросах
Вы не можете прикреплять файлы к сообщениям
Вы можете скачивать файлы