Loading...
Error

Скачать Сабрина / Sabrina (Сидни Поллак) [1995, драма, мелодрама, комедия, ремейк, HDTVRip-AVC] [MVO]+[DVO]+[AVO]+[Sub] торрент без регистрации

 
Статистика раздачи
Размер:  2,99 GB   |    Скачан:  149 раз
Сидов:  1  [  0 KB/s  ]  
 
Автор Сообщение

Marsianka

[] 

Информация о фильме
Название: Сабрина
Оригинальное название: Sabrina
Год выхода: 1995
Жанр: драма, мелодрама, комедия, ремейк
Режиссер: Сидни Поллак
В ролях: Харрисон Форд, Джулия Ормонд, Грег Киннер, Нэнси Марчанд, Джон Вуд, Ричард Кренна, Энджи Дикинсон, Лорен Холли, Дэна Айви, Мириам Колон

О фильме:
В семье Лэраби предстоит важное событие свадьба младшего брата. Приданное невесты позволит братьям стать монополистами на рынке коммуникаций. В Париже Сабрина училась на повара и так же научилась отлично фотографировать



Страна: Германия, США
Студия: Constellation Entertainment, Mirage Enterprises, Mont Blanc Entertainment GmbH, Paramount Pictures, Sandollar Productions, Scott Rudin Productions, Worldwide
Продолжительность: 02:07:09
Перевод: Профессиональный многоголосый, профессиональный двухголосый, авторский одноголосый

Файл
Кодек: MPEG-4 AVC
Качество: HDTVRip (AVC)
Видео: 1954 Кбит/с, 1024x576
Звук: Русский (AC3, 2 ch, 192 Кбит/с), (AC3, 2 ch, 384 Кбит/с), английский (AC3, 6 ch, 448 Кбит/с)
Субтитры: Русские
Рип от StarbirS
за исходник спасибо Gregsam

Перевод: Профессиональный многоголосый
Перевод: Профессиональный многоголосый ТВ Центр
Перевод: Профессиональный двухголосый РТР
Перевод: Авторский одноголосый Василий Горчаков

Аудио: AC3 48,0 КГц 192 Кбит/сек 2 канала - многоголосый
Аудио: AC3 48,0 КГц 192 Кбит/сек 2 канала - многоголосый (ТВ Центр)
Аудио: AC3 48,0 КГц 192 Кбит/сек 2 канала - двухголосый (РТР)
Аудио: AC3 48,0 КГц 384 Кбит/сек 2 канала - авторский одноголосый (Василий Горчаков "Must Have")
Аудио: AC3 48,0 КГц 448 Кбит/сек 6 каналов - оригинал

Огромная благодарность за редактирование и синхронизацию всех дорожек Exner
Отдельная благодарность Nekontroliruemij_devil за новую оцифровку видео кассеты с переводом Василия Горчакова
Ещё благодарю Katerina75 за предоставленный перевод РТР из собственной коллекции

x264 [info]: frame I:1659 Avg QP:16.10 size: 69415
x264 [info]: frame P:53102 Avg QP:18.92 size: 20709
x264 [info]: frame B:173883 Avg QP:22.31 size: 3729
x264 [info]: consecutive B-frames: 3.3% 2.0% 7.4% 30.1% 18.2% 23.6% 10.9% 1.8% 2.8%
Формат : Matroska
Версия формата : Version 4 / Version 2
Размер файла : 2,99 Гбайт
Продолжительность : 2 ч. 7 м.
Общий поток : 3365 Кбит/сек
Название фильма : Sabrina.1995.HDTVRip.(AVC).by.StarbirS
Дата кодирования : UTC 2013-12-01 06:33:01
Программа кодирования : mkvmerge v6.3.0 ('You can't stop me!') built on Jun 28 2013 20:09:41
Библиотека кодирования : libebml v1.3.0 + libmatroska v1.4.0

Видео
Идентификатор : 1
Формат : AVC
Формат/Информация : Advanced Video Codec
Профиль формата : High@L4.1
Параметр CABAC формата : Да
Параметр ReFrames формата : 4 кадра
Идентификатор кодека : V_MPEG4/ISO/AVC
Продолжительность : 2 ч. 7 м.
Битрейт : 1954 Кбит/сек
Ширина : 1024 пикселя
Высота : 576 пикселей
Соотношение сторон : 16:9
Режим частоты кадров : Постоянный
Частота кадров : 29,970 кадров/сек
Цветовое пространство : YUV
Субдискретизация насыщенности : 4:2:0
Битовая глубина : 8 бит
Тип развёртки : Прогрессивная
Бит/(Пиксели*Кадры) : 0.111
Размер потока : 1,68 Гбайт (56%)
Заголовок : Sabrina.1995.HDTVRip.(AVC).by.StarbirS
Библиотека кодирования : x264 core 138 r2358 9e941d1
Настройки программы : cabac=1 / ref=3 / deblock=1:-3:-3 / analyse=0x3:0x133 / me=umh / subme=10 / psy=1 / psy_rd=1.00:0.00 / mixed_ref=1 / me_range=32 / chroma_me=1 / trellis=2 / 8x8dct=1 / cqm=0 / deadzone=21,11 / fast_pskip=0 / chroma_qp_offset=-2 / threads=6 / lookahead_threads=1 / sliced_threads=0 / nr=0 / decimate=1 / interlaced=0 / bluray_compat=0 / constrained_intra=0 / bframes=8 / b_pyramid=2 / b_adapt=2 / b_bias=0 / direct=3 / weightb=1 / open_gop=1 / weightp=2 / keyint=300 / keyint_min=28 / scenecut=40 / intra_refresh=0 / rc_lookahead=40 / rc=2pass / mbtree=1 / bitrate=1954 / ratetol=1.0 / qcomp=0.60 / qpmin=10 / qpmax=51 / qpstep=4 / cplxblur=20.0 / qblur=0.5 / vbv_maxrate=62500 / vbv_bufsize=78125 / nal_hrd=none / ip_ratio=1.40 / aq=1:1.00
Язык : English
Default : Да
Forced : Нет

Аудио #1
Идентификатор : 2
Формат : AC-3
Формат/Информация : Audio Coding 3
Расширение режима : CM (complete main)
Параметр Endianness формата : Big
Идентификатор кодека : A_AC3
Продолжительность : 2 ч. 7 м.
Вид битрейта : Постоянный
Битрейт : 192 Кбит/сек
Каналы : 2 канала
Расположение каналов : Front: L R
Частота : 48,0 КГц
Битовая глубина : 16 бит
Метод сжатия : С потерями
Размер потока : 175 Мбайт (6%)
Заголовок : Профессиональный многоголосый
Язык : Russian
Default : Нет
Forced : Нет

Аудио #2
Идентификатор : 3
Формат : AC-3
Формат/Информация : Audio Coding 3
Расширение режима : CM (complete main)
Параметр Endianness формата : Big
Идентификатор кодека : A_AC3
Продолжительность : 2 ч. 7 м.
Вид битрейта : Постоянный
Битрейт : 192 Кбит/сек
Каналы : 2 канала
Расположение каналов : Front: L R
Частота : 48,0 КГц
Битовая глубина : 16 бит
Метод сжатия : С потерями
Размер потока : 175 Мбайт (6%)
Заголовок : Профессиональный многоголосый (ТВ Центр)
Язык : Russian
Default : Нет
Forced : Нет

Аудио #3
Идентификатор : 4
Формат : AC-3
Формат/Информация : Audio Coding 3
Расширение режима : CM (complete main)
Параметр Endianness формата : Big
Идентификатор кодека : A_AC3
Продолжительность : 2 ч. 7 м.
Вид битрейта : Постоянный
Битрейт : 192 Кбит/сек
Каналы : 2 канала
Расположение каналов : Front: L R
Частота : 48,0 КГц
Битовая глубина : 16 бит
Метод сжатия : С потерями
Размер потока : 175 Мбайт (6%)
Заголовок : Профессиональный двухголосый (PTP)
Язык : Russian
Default : Нет
Forced : Нет

Аудио #4
Идентификатор : 5
Формат : AC-3
Формат/Информация : Audio Coding 3
Расширение режима : CM (complete main)
Параметр Endianness формата : Big
Идентификатор кодека : A_AC3
Продолжительность : 2 ч. 7 м.
Вид битрейта : Постоянный
Битрейт : 384 Кбит/сек
Каналы : 2 канала
Расположение каналов : Front: L R
Частота : 48,0 КГц
Битовая глубина : 16 бит
Метод сжатия : С потерями
Размер потока : 349 Мбайт (11%)
Заголовок : Авторский одноголосый (В. Горчаков)
Язык : Russian
Default : Нет
Forced : Нет

Аудио #5
Идентификатор : 6
Формат : AC-3
Формат/Информация : Audio Coding 3
Расширение режима : CM (complete main)
Параметр Endianness формата : Big
Идентификатор кодека : A_AC3
Продолжительность : 2 ч. 7 м.
Вид битрейта : Постоянный
Битрейт : 448 Кбит/сек
Каналы : 6 каналов
Расположение каналов : Front: L C R, Side: L R, LFE
Частота : 48,0 КГц
Битовая глубина : 16 бит
Метод сжатия : С потерями
Размер потока : 407 Мбайт (13%)
Заголовок : Оригинал
Язык : English
Default : Нет
Forced : Нет

Текст
Идентификатор : 7
Формат : UTF-8
Идентификатор кодека : S_TEXT/UTF8
Идентификатор кодека/Информация : UTF-8 Plain Text
Заголовок : Русские
Язык : Russian
Default : Нет
Forced : Нет



Скачать Сабрина.Sabrina.(Сидни.Поллак).[1995.драма.мелодрама.комедия.ремейк.HDTVRip-AVC].[MVO]+[DVO]+[AVO]+[Sub].torrent без регистрации
Золото ЗОЛОТАЯ РАЗДАЧА! СКАЧАННОЕ НЕ ЗАСЧИТЫВАЕТСЯ! Золото
Дата: Зарегистрирован   [ Тип: внутренний ] Как тут cкачать?
MAGNET ссылка
MAGNET ссылка


Скачать .torrent

15 KB

Статус: проверено DHT
Скачан: торрент - 149 раз, раздача полностью - 39 раз
Размер: 2,99 GB
Оценка:  - (Голосов: 0)
Поблагодарили: 1
Поделиться ссылкой на эту раздачу с друзьями:
В контактеFacebookОдноклассникиTwitterLivejournalМой МирLiveinternet
 

 
Показать сообщения:    


Вы не можете начинать темы
Вы не можете отвечать на сообщения
Вы не можете редактировать свои сообщения
Вы не можете удалять свои сообщения
Вы не можете голосовать в опросах
Вы не можете прикреплять файлы к сообщениям
Вы можете скачивать файлы