Loading...
Error

Скачать Гранд Отель / Grand Hotel (Эдмунд Гулдинг) [1932, драма, мелодрама, экранизация, BDRip-AVC] [MVO]+[DVO]+[Оригинал] торрент без регистрации

 
Статистика раздачи
Размер:  1,83 GB   |    Скачан:  98 раз
Сидов:  1  [  0 KB/s  ]  
 
Автор Сообщение

Marsianka

[] 

Информация о фильме
Название: Гранд Отель
Оригинальное название: Grand Hotel
Год выхода: 1932
Жанр: драма, мелодрама, экранизация
Режиссер: Эдмунд Гулдинг
В ролях: Грета Гарбо, Джон Бэрримор, Рафаэла Оттиано, Фердинанд Готтшальк, Пернелл Прэтт, Роберт МакУэйд, Уоллес Бири, Лайонел Бэрримор, Джоан Кроуфорд, Жан Хершолт, Льюис Стоун, Талли Маршалл, Морган Уоллес, Фрэнк Конрой, Мюррэй Киннелл, Эдвин Максвелл

О фильме:
Картина по роману Викки Баум "Люди в отеле" (Menschen im Hotel) выношена лично Талбергом. Он собрал всех самых легендарных звезд, отдав дань блеску и славе тускнеющего "Золотого веку" Голливуда, и рассчитан в первую очередь на любителей истории кино. Масштабный блокбастер отслеживает хроники переплетающихся жизней лиц, поселившихся в Гранд Отеле. Здесь одинокая балерина Гарбо, благородный вор Джон Бэрримор, честолюбивая стенографистка Джоэн Кроуфорд, Лайонел Бэрримор, желающий под музыку уйти в мир иной, и Уоллес Бири, безжалостный промышленник. Льюис Стоун и Жан Хершолт живут в фильме только для того, чтобы комментировать других. Если "Ужин в восемь", поставленный год спустя, пошел как фильм намного лучше, так как вел рассказ о богатых и знаменитых, то "Гранд Отель" населен теми, кто не обладает этими двумя притягательными качествами. Не следует ожидать особенно острого сценария или даже игры высочайшего класса. Этот шедевр, поставленный Гулдингом с большим размахом, безнадежно устарел, хотя работа художников и костюмеров роскошна. Несмотря ни на что, картина остается своего рода классикой. В свое время он был восторженно принят критикой и зрителями. В 1945 году был снят легковесный римейк "Уикэнд в Уолдорфе".



Страна: США, Metro-Goldwyn-Mayer (MGM)
Продолжительность: 01:52:41
Перевод: Профессиональный многоголосый, профессиональный двухголосый
Дата релиза: 02.12.2013

Файл
Кодек: H.264
Качество: BDRip (AVC)
Видео: MPEG-4 AVC, 1750 Кбит/с, 784x576
Аудио 1: Русский (AC3, 2 ch, 192 Кбит/с) - Профессиональный многоголосый (Фильм Престиж)
Аудио 2: Русский (AC3, 2 ch, 192 Кбит/с) - Профессиональный двухголосый (SomeWax)
Аудио 3: Английский (AC3, 1 ch, 192 Кбит/с)
Общее
Уникальный идентификатор : 218857992609441561056209030661771017583 (0xA4A68422A2C3DFCDB40DA0414186BD6F)
Полное имя : E:5Grand.Otel.1932.x264.BDRip.(AVC).ExKinoRay.mkv
Формат : Matroska
Размер файла : 1,83 Гбайт
Продолжительность : 1 ч. 52 м.
Общий поток : 2328 Кбит/сек
Название фильма : Grand.Otel.1932.x264.BDRip.(AVC).ExKinoRay
Дата кодирования : UTC 2013-12-01 11:23:34
Программа кодирования : mkvmerge v4.0.0 ('The Stars were mine') сборка от Jun 6 2010 16:18:42
Библиотека кодирования : libebml v1.0.0 + libmatroska v1.0.0

Видео
Идентификатор : 1
Формат : AVC
Формат/Информация : Advanced Video Codec
Профиль формата : High@L4.1
Параметр CABAC формата : Да
Параметр ReFrames формата : 8 кадров
Идентификатор кодека : V_MPEG4/ISO/AVC
Продолжительность : 1 ч. 52 м.
Битрейт : 1750 Кбит/сек
Ширина : 784 пикс.
Высота : 576 пикс.
Соотношение сторон : 4:3
Частота кадров : 23,976 кадр/сек
Цветовое пространство : YUV
Подвыборка цветности : 4:2:0
Битовая глубина : 8 бит
Тип развёртки : Прогрессивная
Бит/(Пиксели*Кадры) : 0.162
Размер потока : 1,34 Гбайт (73%)
Заголовок : Rip by Enigma-Vladislav71
Библиотека кодирования : x264 core 125 r2208 d9d2288
Настройки программы : cabac=1 / ref=8 / deblock=1:-2:-2 / analyse=0x3:0x133 / me=umh / subme=11 / psy=1 / psy_rd=1.00:0.00 / mixed_ref=1 / me_range=48 / chroma_me=1 / trellis=2 / 8x8dct=1 / cqm=0 / deadzone=21,11 / fast_pskip=0 / chroma_qp_offset=-2 / threads=3 / lookahead_threads=1 / sliced_threads=0 / nr=0 / decimate=0 / interlaced=0 / bluray_compat=0 / constrained_intra=0 / bframes=8 / b_pyramid=2 / b_adapt=2 / b_bias=0 / direct=3 / weightb=1 / open_gop=0 / weightp=2 / keyint=240 / keyint_min=23 / scenecut=40 / intra_refresh=0 / rc=2pass / mbtree=0 / bitrate=1750 / ratetol=1.0 / qcomp=0.60 / qpmin=10 / qpmax=51 / qpstep=4 / cplxblur=20.0 / qblur=0.5 / ip_ratio=1.40 / pb_ratio=1.30 / aq=1:1.00
Язык : English

Аудио #1
Идентификатор : 2
Формат : AC-3
Формат/Информация : Audio Coding 3
Расширение режима : CM (complete main)
Идентификатор кодека : A_AC3
Продолжительность : 1 ч. 52 м.
Вид битрейта : Постоянный
Битрейт : 192 Кбит/сек
Каналы : 2 канала
Расположение каналов : Front: L R
Частота : 48,0 КГц
Битовая глубина : 16 бит
Метод сжатия : С потерями
Размер потока : 155 Мбайт (8%)
Заголовок : Профессиональный двухголосый (Фильм Престиж)
Язык : Russian

Аудио #2
Идентификатор : 3
Формат : AC-3
Формат/Информация : Audio Coding 3
Расширение режима : CM (complete main)
Идентификатор кодека : A_AC3
Продолжительность : 1 ч. 52 м.
Вид битрейта : Постоянный
Битрейт : 192 Кбит/сек
Каналы : 2 канала
Расположение каналов : Front: L R
Частота : 48,0 КГц
Битовая глубина : 16 бит
Метод сжатия : С потерями
Размер потока : 155 Мбайт (8%)
Заголовок : Профессиональный двухголосый (SomeWax)
Язык : Russian

Аудио #3
Идентификатор : 4
Формат : AC-3
Формат/Информация : Audio Coding 3
Расширение режима : CM (complete main)
Идентификатор кодека : A_AC3
Продолжительность : 1 ч. 52 м.
Вид битрейта : Постоянный
Битрейт : 192 Кбит/сек
Каналы : 1 канал
Расположение каналов : Front: C
Частота : 48,0 КГц
Битовая глубина : 16 бит
Метод сжатия : С потерями
Размер потока : 155 Мбайт (8%)
Заголовок : английский
Язык : English

Меню
00:00:00.000 : en:Chapter 01
00:01:37.764 : en:Chapter 02
00:05:01.342 : en:Chapter 03
00:07:33.953 : en:Chapter 04
00:11:38.280 : en:Chapter 05
00:16:42.876 : en:Chapter 06
00:19:32.171 : en:Chapter 07
00:25:55.594 : en:Chapter 08
00:28:29.206 : en:Chapter 09
00:31:47.447 : en:Chapter 10
00:34:44.040 : en:Chapter 11
00:39:12.266 : en:Chapter 12
00:42:45.813 : en:Chapter 13
00:45:32.771 : en:Chapter 14
00:49:13.867 : en:Chapter 15
00:53:35.921 : en:Chapter 16
00:57:43.793 : en:Chapter 17
01:03:43.152 : en:Chapter 18
01:07:07.814 : en:Chapter 19
01:13:18.644 : en:Chapter 20
01:18:44.428 : en:Chapter 21
01:22:56.220 : en:Chapter 22
01:26:02.782 : en:Chapter 23
01:29:49.841 : en:Chapter 24
01:32:21.035 : en:Chapter 25
01:35:27.220 : en:Chapter 26
01:38:40.539 : en:Chapter 27
01:41:23.202 : en:Chapter 28
01:44:13.580 : en:Chapter 29
01:47:56.887 : en:Chapter 30
01:50:01.428 : en:Chapter 31
01:51:57.252 : en:Chapter 32
Релиз от:

Авторы релиза:



Скачать Гранд.Отель.Grand.Hotel.(Эдмунд.Гулдинг).[1932.драма.мелодрама.экранизация.BDRip-AVC].[MVO]+[DVO]+[Оригинал].torrent без регистрации
Золото ЗОЛОТАЯ РАЗДАЧА! СКАЧАННОЕ НЕ ЗАСЧИТЫВАЕТСЯ! Золото
Дата: Зарегистрирован   [ Тип: внутренний ] Как тут cкачать?
MAGNET ссылка
MAGNET ссылка


Скачать .torrent

19 KB

Статус: проверено DHT
Скачан: торрент - 98 раз, раздача полностью - 1 раз
Размер: 1,83 GB
Оценка:  - (Голосов: 0)
Поблагодарили: 1
Поделиться ссылкой на эту раздачу с друзьями:
В контактеFacebookОдноклассникиTwitterLivejournalМой МирLiveinternet
 

 
Показать сообщения:    


Вы не можете начинать темы
Вы не можете отвечать на сообщения
Вы не можете редактировать свои сообщения
Вы не можете удалять свои сообщения
Вы не можете голосовать в опросах
Вы не можете прикреплять файлы к сообщениям
Вы можете скачивать файлы