Loading...
Error

Скачать Молодой Морс / Endeavour (сезон 01) (Рассел Льюис, Колм МакКарти) [2012-2013, драма, детектив, Blu-Ray] [1080p] [MVO (Jaskier)] торрент без регистрации

 
Статистика раздачи
Размер:  100,91 GB   |    Скачан:  116 раз
Сидов:  1  [  0 KB/s  ]  
 
Автор Сообщение

МихаНЕзатор

[] 

Информация о фильме
Название: Индевор
Оригинальное название: Endeavour
Год выхода: 2012-2013
Жанр: драма, детектив
Режиссер: Рассел Льюис, Колм МакКарти

В ролях: Шон Эванс, Роджер Аллам, Чарли Крид-Майлз, Дэниэл Уэбб, Патрик Мэлахайд, Эбигейл Тоу, Джон Лайт, Ричард Линтерн, Флора Монтгомери, Джек Эштон.

О фильме:
1965 год. Эндевор Морс расследует пропажу школьницы, по ходу дела понимая, что возвращается обратно в Оксфорд - к месту, которое вскоре решит его дальнейшую судьбу. Он принимает участие в крупном расследовании убийства, главным инспектором которого является Фред Тьюздем. Эндервор оказывается в тупике и его отстраняют от дела. Вновь столкнувшись со своим не очень приятным прошлым, он решает начать поход во имя справедливости. Ему придется столкнутся с множеством неприятностей...



Страна: Великобритания
Продолжительность: ~ 01:35:57
Перевод: Профессиональный многоголосый [студия Jaskier]

Перевод: Альберт Фасхутдинов
Роли озвучивали: Денис Строев, Вячеслав Козлов, Сергей Пономарёв, Михаил Кшиштовский и Рина Гришина

Файл
Кодек: MPEG-4 AVC
Качество: Blu-Ray 1080p
Видео: ~ 24571 Кбит/с, 1920x1080, 23.976 кадр/с
Звук: Русский (DTS-HD MA, 2 ch, ~ 1712 Кбит/с), англиский (DTS-HD MA, 2 ch, ~ 1692 Кбит/с)
Субтитры: англиский

Релиз от: by psicho

00: Endeavour / Индевор
01: Girl / Девушка
02: Fugue / Фуга
03: Rocket / Ракета
04: Home / Дом

Диски пересобраны из оригинальных Blu-ray.
Исходные диски приобретены в рамках сервиса от HDCLUB - "Копилка: Помоги с Blu-ray" (Сериалы). Спонсоры lawyers, Vlad1k_H_.
Русские дорожки сделаны с чистых голосов.

Disc Title: ENDEAVOUR_S1_D3_BLU-RAY_HDCLUB
Disc Size: 22 692 617 188 bytes
Protection: AACS
BD-Java: No
BDInfo: 0.5.8

Notes:

BDINFO HOME:
Cinema Squid
http://www.cinemasquid.com/blu-ray/tools/bdinfo

INCLUDES FORUMS REPORT FOR:
AVS Forum Blu-ray Audio and Video Specifications Thread
http://www.avsforum.com/avs-vb/showthread.php?t=1155731

********************
PLAYLIST: 00005.MPLS
********************


Код:
Total Video
Title Codec Length Movie Size Disc Size Bitrate Bitrate Main Audio Track Secondary Audio Track
----- ------ ------- -------------- -------------- ------- ------- ------------------ ---------------------
00005.MPLS AVC 1:35:57 22 013 534 208 22 692 617 188 30,59 25,32 DTS-HD Master 2.0 1711Kbps (48kHz/16-bit)
Код:
DISC INFO:

Disc Title: ENDEAVOUR_S1_D3_BLU-RAY_HDCLUB
Disc Size: 22 692 617 188 bytes
Protection: AACS
BD-Java: No
BDInfo: 0.5.8

PLAYLIST REPORT:

Name: 00005.MPLS
Length: 1:35:57.751 (h:m:s.ms)
Size: 22 013 534 208 bytes
Total Bitrate: 30,59 Mbps

VIDEO:

Codec Bitrate Deion
----- ------- -----------
MPEG-4 AVC Video 25320 kbps 1080p / 23,976 fps / 16:9 / High Profile 4.1

AUDIO:

Codec Language Bitrate Deion
----- -------- ------- -----------
DTS-HD Master Audio Russian 1711 kbps 2.0 / 48 kHz / 1711 kbps / 16-bit (DTS Core: 2.0 / 48 kHz / 1509 kbps / 16-bit)
DTS-HD Master Audio English 1684 kbps 2.0 / 48 kHz / 1684 kbps / 16-bit (DTS Core: 2.0 / 48 kHz / 1509 kbps / 16-bit)

SUBTITLES:

Codec Language Bitrate Deion
----- -------- ------- -----------
Presentation Graphics English 36,379 kbps

FILES:

Name Time In Length Size Total Bitrate
---- ------- ------ ---- -------------
00002.M2TS 0:00:00.000 1:35:57.710 22 010 861 568 30 583
00001.M2TS 1:35:57.710 0:00:00.041 2 672 640 512 600

CHAPTERS:

Number Time In Length Avg Video Rate Max 1-Sec Rate Max 1-Sec Time Max 5-Sec Rate Max 5-Sec Time Max 10Sec Rate Max 10Sec Time Avg Frame Size Max Frame Size Max Frame Time
------ ------- ------ -------------- -------------- -------------- -------------- -------------- -------------- -------------- -------------- -------------- --------------
1 0:00:00.000 0:11:43.828 26 812 kbps 44 242 kbps 00:00:12.637 38 259 kbps 00:00:12.637 35 773 kbps 00:00:58.892 139 779 bytes 469 203 bytes 00:00:54.763
2 0:11:43.828 0:04:05.078 26 441 kbps 42 559 kbps 00:15:00.899 34 748 kbps 00:15:05.821 33 529 kbps 00:14:10.182 137 852 bytes 425 310 bytes 00:13:39.902
3 0:15:48.906 0:05:45.219 27 073 kbps 38 202 kbps 00:16:09.259 33 386 kbps 00:16:09.176 31 943 kbps 00:20:33.190 141 148 bytes 426 101 bytes 00:20:14.004
4 0:21:34.126 0:08:52.615 26 243 kbps 42 152 kbps 00:27:20.638 33 541 kbps 00:25:23.230 31 739 kbps 00:27:19.012 136 818 bytes 415 228 bytes 00:23:26.863
5 0:30:26.741 0:09:55.136 24 642 kbps 38 918 kbps 00:33:56.325 32 364 kbps 00:38:24.677 30 631 kbps 00:32:25.860 128 473 bytes 400 284 bytes 00:35:18.699
6 0:40:21.877 0:08:24.754 27 621 kbps 43 233 kbps 00:44:30.834 36 813 kbps 00:44:26.830 35 003 kbps 00:44:22.826 144 003 bytes 389 215 bytes 00:40:41.605
7 0:48:46.632 0:09:58.014 26 397 kbps 42 354 kbps 00:51:52.776 35 354 kbps 00:51:52.025 33 943 kbps 00:52:39.114 137 622 bytes 454 042 bytes 00:54:05.909
8 0:58:44.646 0:10:44.143 25 182 kbps 39 524 kbps 01:03:35.186 34 490 kbps 01:03:27.303 34 052 kbps 01:03:22.298 131 285 bytes 400 062 bytes 01:00:48.895
9 1:09:28.789 0:10:19.577 22 857 kbps 39 881 kbps 01:17:55.420 32 340 kbps 01:16:44.850 30 712 kbps 01:16:38.719 119 167 bytes 394 005 bytes 01:12:23.964
10 1:19:48.366 0:16:09.385 23 044 kbps 43 450 kbps 01:27:47.720 39 320 kbps 01:27:47.512 33 685 kbps 01:27:47.553 120 145 bytes 406 590 bytes 01:33:42.867

STREAM DIAGNOSTICS:

File PID Type Codec Language Seconds Bitrate Bytes Packets
---- --- ---- ----- -------- -------------- -------------- ------------- -----
00002.M2TS 4113 (0x1011) 0x1B AVC 5757,585 25 321 18 223 599 093 99 121 978
00002.M2TS 4352 (0x1100) 0x86 DTS-HD MA rus (Russian) 5757,585 1 708 1 229 318 028 7 612 309
00002.M2TS 4353 (0x1101) 0x86 DTS-HD MA eng (English) 5757,585 1 684 1 211 990 728 7 558 887
00002.M2TS 4608 (0x1200) 0x90 PGS eng (English) 5757,585 36 26 182 761 153 777
00001.M2TS 4113 (0x1011) 0x1B AVC 0 0 2 432 14
00001.M2TS 4352 (0x1100) 0x86 DTS-HD MA rus (Russian) 0 0 2 156 964 13 507


QUICK SUMMARY:

Disc Title: ENDEAVOUR_S1_D3_BLU-RAY_HDCLUB
Disc Size: 22 692 617 188 bytes
Protection: AACS
BD-Java: No
Playlist: 00005.MPLS
Size: 22 013 534 208 bytes
Length: 1:35:57.751
Total Bitrate: 30,59 Mbps
Video: MPEG-4 AVC Video / 25320 kbps / 1080p / 23,976 fps / 16:9 / High Profile 4.1
Audio: Russian / DTS-HD Master Audio / 2.0 / 48 kHz / 1711 kbps / 16-bit (DTS Core: 2.0 / 48 kHz / 1509 kbps / 16-bit)
Audio: English / DTS-HD Master Audio / 2.0 / 48 kHz / 1684 kbps / 16-bit (DTS Core: 2.0 / 48 kHz / 1509 kbps / 16-bit)
Subtitle: English / 36,379 kbps

********************
PLAYLIST: 00003.MPLS
********************


Код:
Total Video
Title Codec Length Movie Size Disc Size Bitrate Bitrate Main Audio Track Secondary Audio Track
----- ------ ------- -------------- -------------- ------- ------- ------------------ ---------------------
00003.MPLS AVC 0:01:45 365 377 536 22 692 617 188 27,81 24,67 DTS-HD Master 2.0 1643Kbps (48kHz/16-bit)
Код:
DISC INFO:

Disc Title: ENDEAVOUR_S1_D3_BLU-RAY_HDCLUB
Disc Size: 22 692 617 188 bytes
Protection: AACS
BD-Java: No
BDInfo: 0.5.8

PLAYLIST REPORT:

Name: 00003.MPLS
Length: 0:01:45.104 (h:m:s.ms)
Size: 365 377 536 bytes
Total Bitrate: 27,81 Mbps

VIDEO:

Codec Bitrate Deion
----- ------- -----------
MPEG-4 AVC Video 24667 kbps 1080i / 29,970 fps / 16:9 / High Profile 4.1

AUDIO:

Codec Language Bitrate Deion
----- -------- ------- -----------
DTS-HD Master Audio English 1643 kbps 2.0 / 48 kHz / 1643 kbps / 16-bit (DTS Core: 2.0 / 48 kHz / 1509 kbps / 16-bit)

SUBTITLES:

Codec Language Bitrate Deion
----- -------- ------- -----------
Presentation Graphics English 29,616 kbps

FILES:

Name Time In Length Size Total Bitrate
---- ------- ------ ---- -------------
00003.M2TS 0:00:00.000 0:01:39.065 347 873 280 28 092
00008.M2TS 0:01:39.065 0:00:06.039 17 504 256 23 187

CHAPTERS:

Number Time In Length Avg Video Rate Max 1-Sec Rate Max 1-Sec Time Max 5-Sec Rate Max 5-Sec Time Max 10Sec Rate Max 10Sec Time Avg Frame Size Max Frame Size Max Frame Time
------ ------- ------ -------------- -------------- -------------- -------------- -------------- -------------- -------------- -------------- -------------- --------------
1 0:00:00.000 0:01:39.065 24 939 kbps 40 634 kbps 00:00:07.273 37 388 kbps 00:00:07.173 34 057 kbps 00:00:07.007 103 979 bytes 512 574 bytes 00:01:05.098
2 0:01:39.065 0:00:06.039 20 221 kbps 41 802 kbps 00:01:39.365 24 332 kbps 00:01:39.365 0 kbps 00:00:00.000 84 807 bytes 465 149 bytes 00:01:40.166

STREAM DIAGNOSTICS:

File PID Type Codec Language Seconds Bitrate Bytes Packets
---- --- ---- ----- -------- -------------- -------------- ------------- -----
00003.M2TS 4113 (0x1011) 0x1B AVC 98,966 24 964 308 816 460 1 680 118
00003.M2TS 4352 (0x1100) 0x86 DTS-HD MA eng (English) 98,966 1 643 20 328 512 126 046
00003.M2TS 4608 (0x1200) 0x90 PGS eng (English) 98,966 31 389 094 2 308
00008.M2TS 4113 (0x1011) 0x1B AVC 5,906 20 681 15 267 640 83 089
00008.M2TS 4352 (0x1100) 0x86 DTS-HD MA eng (English) 5,906 1 711 1 262 772 7 834


QUICK SUMMARY:

Disc Title: ENDEAVOUR_S1_D3_BLU-RAY_HDCLUB
Disc Size: 22 692 617 188 bytes
Protection: AACS
BD-Java: No
Playlist: 00003.MPLS
Size: 365 377 536 bytes
Length: 0:01:45.104
Total Bitrate: 27,81 Mbps
Video: MPEG-4 AVC Video / 24667 kbps / 1080i / 29,970 fps / 16:9 / High Profile 4.1
Audio: English / DTS-HD Master Audio / 2.0 / 48 kHz / 1643 kbps / 16-bit (DTS Core: 2.0 / 48 kHz / 1509 kbps / 16-bit)
Subtitle: English / 29,616 kbps

********************
PLAYLIST: 00001.MPLS
********************


Код:
Total Video
Title Codec Length Movie Size Disc Size Bitrate Bitrate Main Audio Track Secondary Audio Track
----- ------ ------- -------------- -------------- ------- ------- ------------------ ---------------------
00001.MPLS AVC 0:01:39 347 873 280 22 692 617 188 28,09 24,94 DTS-HD Master 2.0 1642Kbps (48kHz/16-bit)
Код:
DISC INFO:

Disc Title: ENDEAVOUR_S1_D3_BLU-RAY_HDCLUB
Disc Size: 22 692 617 188 bytes
Protection: AACS
BD-Java: No
BDInfo: 0.5.8

PLAYLIST REPORT:

Name: 00001.MPLS
Length: 0:01:39.065 (h:m:s.ms)
Size: 347 873 280 bytes
Total Bitrate: 28,09 Mbps

VIDEO:

Codec Bitrate Deion
----- ------- -----------
MPEG-4 AVC Video 24938 kbps 1080i / 29,970 fps / 16:9 / High Profile 4.1

AUDIO:

Codec Language Bitrate Deion
----- -------- ------- -----------
DTS-HD Master Audio English 1642 kbps 2.0 / 48 kHz / 1642 kbps / 16-bit (DTS Core: 2.0 / 48 kHz / 1509 kbps / 16-bit)

SUBTITLES:

Codec Language Bitrate Deion
----- -------- ------- -----------
Presentation Graphics English 31,421 kbps

FILES:

Name Time In Length Size Total Bitrate
---- ------- ------ ---- -------------
00003.M2TS 0:00:00.000 0:01:39.065 347 873 280 28 092

CHAPTERS:

Number Time In Length Avg Video Rate Max 1-Sec Rate Max 1-Sec Time Max 5-Sec Rate Max 5-Sec Time Max 10Sec Rate Max 10Sec Time Avg Frame Size Max Frame Size Max Frame Time
------ ------- ------ -------------- -------------- -------------- -------------- -------------- -------------- -------------- -------------- -------------- --------------
1 0:00:00.000 0:01:39.065 24 938 kbps 40 634 kbps 00:00:07.273 37 388 kbps 00:00:07.173 34 057 kbps 00:00:07.007 104 014 bytes 512 574 bytes 00:01:05.098

STREAM DIAGNOSTICS:

File PID Type Codec Language Seconds Bitrate Bytes Packets
---- --- ---- ----- -------- -------------- -------------- ------------- -----
00003.M2TS 4113 (0x1011) 0x1B AVC 98,966 24 964 308 816 460 1 680 118
00003.M2TS 4352 (0x1100) 0x86 DTS-HD MA eng (English) 98,966 1 643 20 328 512 126 046
00003.M2TS 4608 (0x1200) 0x90 PGS eng (English) 98,966 31 389 094 2 308


QUICK SUMMARY:

Disc Title: ENDEAVOUR_S1_D3_BLU-RAY_HDCLUB
Disc Size: 22 692 617 188 bytes
Protection: AACS
BD-Java: No
Playlist: 00001.MPLS
Size: 347 873 280 bytes
Length: 0:01:39.065
Total Bitrate: 28,09 Mbps
Video: MPEG-4 AVC Video / 24938 kbps / 1080i / 29,970 fps / 16:9 / High Profile 4.1
Audio: English / DTS-HD Master Audio / 2.0 / 48 kHz / 1642 kbps / 16-bit (DTS Core: 2.0 / 48 kHz / 1509 kbps / 16-bit)
Subtitle: English / 31,421 kbps



Скачать Молодой.Морс.Endeavour.(сезон.01).(Рассел.Льюис.Колм.МакКарти).[2012-2013.драма.детектив.Blu-Ray].[1080p].[MVO.(Jaskier)].torrent без регистрации
Золото ЗОЛОТАЯ РАЗДАЧА! СКАЧАННОЕ НЕ ЗАСЧИТЫВАЕТСЯ! Золото
Дата: Зарегистрирован   [ Тип: внутренний ] Как тут cкачать?
MAGNET ссылка
MAGNET ссылка


Скачать .torrent

519 KB

Статус: проверено DHT
Скачан: торрент - 116 раз, раздача полностью - 1 раз
Размер: 100,91 GB
Оценка:  - (Голосов: 0)
Поблагодарили: 0
Поделиться ссылкой на эту раздачу с друзьями:
В контактеFacebookОдноклассникиTwitterLivejournalМой МирLiveinternet
 

 
Показать сообщения:    


Вы не можете начинать темы
Вы не можете отвечать на сообщения
Вы не можете редактировать свои сообщения
Вы не можете удалять свои сообщения
Вы не можете голосовать в опросах
Вы не можете прикреплять файлы к сообщениям
Вы можете скачивать файлы