Loading...
Error

Скачать Чужой среди своих / Родина / Homeland (сезон 03) (Майкл Куэста, Кларк Джонсон, Джеффри Начманофф) [2013, триллер, драма, детектив, WEB-DLRip] [MVO (Пифагор)] торрент без регистрации

 
Статистика раздачи
Размер:  6,7 GB   |    Скачан:  2152 раза
Сидов:  1  [  0 KB/s  ]  
 
Автор Сообщение

МихаНЕзатор

[] 

Информация о фильме
Название: Чужой среди своих / Родина
Оригинальное название: Homeland
Год выхода: 2013
Жанр: триллер, драма, детектив
Режиссер: Майкл Куэста | Michael Cuesta, Кларк Джонсон | Clark Johnson, Джеффри Начманофф | Jeffrey Nachmanoff

В ролях: Клэр Дэйнс, Дэмиэн Льюис, Мэнди Пэтинкин, Морена Баккарин, Дэвид Хэрвуд, Джексон Паке, Морган Сэйлор, Диего Клаттенхофф, Руперт Френд, Дэвид Марсиано и др.

О фильме: Шпионская драма продолжается. Суперинтересные первый и второй сезоны этого телешедевра уже позади, но нас ожидает новый виток сюжета. Сотрудницу ЦРУ Кэрри отправят в психлечебницу, и история сконцентрируется на семье офицера Броуди, в особенности, на его дочери, которая приняла ислам. Ну и конечно снова ожидаетсят много прослушки, перехватов, дезинформации и борьбы с терроризмом на благо Америки.

Страна: США
Студия: Cherry Pie Productions, Fox 21, Keshet Broadcasting, Showtime Networks Inc., Teakwood Lane Productions
Продолжительность серии: ~55 мин.
Перевод: Профессиональный (многоголосый закадровый) (Пифагор)
Оригинальная аудиодорожка: английский

Релиз от:

Файл
Кодек: XviD
Качество: WEB-DLRip
Видео: MPEG4, XviD, 720x400 (16:9), 23.976 fps, 1 413 Kbps (0.205 bit/pixel)
Аудио #1: MP3, 48.0 KHz, 2 ch, 128 Kbps, CBR (Rus)
Аудио #2: MP3, 48.0 KHz, 2 ch, 128 Kbps, CBR (Eng)
Субтитры: отсутствуют

АНОНСЫ ПОПУЛЯРНЫХ РАЗДАЧ


21.12.2013 г. торент обновлён, добавлена 12-я серия!

General
Complete name : Homeland s03e01.avi
Format : AVI
Format/Info : Audio Video Interleave
File size : 699 MiB
Duration : 58mn 5s
Overall bit rate : 1 683 Kbps
Writing application : VirtualDubMod 1.5.10.2 (build 2540/release)
Writing library : VirtualDubMod build 2540/release

Video
ID : 0
Format : MPEG-4 Visual
Format profile : Advanced Simple@L5
Format settings, BVOP : 2
Format settings, QPel : No
Format settings, GMC : No warppoints
Format settings, Matrix : Default (MPEG)
Codec ID : XVID
Codec ID/Hint : XviD
Duration : 58mn 5s
Bit rate : 1 413 Kbps
Width : 720 pixels
Height : 400 pixels
Display aspect ratio : 16:9
Frame rate : 23.976 fps
Color space : YUV
Chroma subsampling : 4:2:0
Bit depth : 8 bits
Scan type : Progressive
Compression mode : Lossy
Bits/(Pixel*Frame) : 0.205
Stream size : 587 MiB (84%)
Writing library : XviD 64

Audio #1
ID : 1
Format : MPEG Audio
Format version : Version 1
Format profile : Layer 3
Mode : Joint stereo
Mode extension : MS Stereo
Codec ID : 55
Codec ID/Hint : MP3
Duration : 58mn 5s
Bit rate mode : Constant
Bit rate : 128 Kbps
Channel(s) : 2 channels
Sampling rate : 48.0 KHz
Compression mode : Lossy
Stream size : 53.2 MiB (8%)
Alignment : Aligned on interleaves
Interleave, duration : 42 ms (1.00 video frame)
Interleave, preload duration : 504 ms

Audio #2
ID : 2
Format : MPEG Audio
Format version : Version 1
Format profile : Layer 3
Mode : Joint stereo
Mode extension : MS Stereo
Codec ID : 55
Codec ID/Hint : MP3
Duration : 58mn 5s
Bit rate mode : Constant
Bit rate : 128 Kbps
Channel(s) : 2 channels
Sampling rate : 48.0 KHz
Compression mode : Lossy
Stream size : 53.2 MiB (8%)
Alignment : Aligned on interleaves
Interleave, duration : 42 ms (1.00 video frame)
Interleave, preload duration : 504 ms
Раздача ведётся путём добавления новых серий; при каждом добавлении создаётся новый торрент. Чтобы начать докачку новой серии, пользователям необходимо сделать следующее:
остановить скачивание,
удалить старый торрент у себя из клиента (старые серии удалять не надо),
скачать новый торрент и запустить его у себя в клиенте вместо старого, при этом указать клиенту путь в старую папку куда и должно происходить скачивание новых серий.
Ваш клиент при этом должен произвести хеширование (проверку) старой папки (если не производит сам - помогите ему сделать это), и будет докачивать только те серии которых у вас ещё нет. Старые серии при этом не удаляются, а продолжают раздаваться!
Eсли вы уже удалили старые серии, то предотвратить повторную закачку старых серий можно, отжав галочку в соответствующих местах при запуске нового торрента. По возможности, желательно не удалять старые серии как можно дольше чтобы релизёр не столько продолжал раздавать старые серии, а смог сконцентрироваться на новых.



Скачать Чужой.среди.своих.Родина.Homeland.(сезон.03).(Майкл.Куэста.Кларк.Джонсон.Джеффри.Начманофф).[2013.триллер.драма.детектив.WEB-DLRip].[MVO.(Пифагор)].torrent без регистрации
Золото ЗОЛОТАЯ РАЗДАЧА! СКАЧАННОЕ НЕ ЗАСЧИТЫВАЕТСЯ! Золото
Дата: Зарегистрирован   [ Тип: внутренний ] Как тут cкачать?
MAGNET ссылка
MAGNET ссылка


Скачать .torrent

18 KB

Статус: проверено DHT
Скачан: торрент - 2152 раз, раздача полностью - 6 раз
Размер: 6,7 GB
Оценка:  - (Голосов: 0)
Поблагодарили: 1
Поделиться ссылкой на эту раздачу с друзьями:
В контактеFacebookОдноклассникиTwitterLivejournalМой МирLiveinternet
 

 

МихаНЕзатор

[] 

Раздача обновлена
 
Показать сообщения:    


Вы не можете начинать темы
Вы не можете отвечать на сообщения
Вы не можете редактировать свои сообщения
Вы не можете удалять свои сообщения
Вы не можете голосовать в опросах
Вы не можете прикреплять файлы к сообщениям
Вы можете скачивать файлы