Loading...
Error

Скачать Папочка / Baby Daddy (сезон 01) (Майкл Лембек, Арлин Санфорд, Робби Кантримэн) [2012, комедия, ситком, WEB-DLRip] [MVO (Fox Life)] торрент без регистрации

 
Статистика раздачи
Размер:  2,44 GB   |    Скачан:  135 раз
Сидов:  1  [  0 KB/s  ]  
 
Автор Сообщение

МихаНЕзатор

[] 

Информация о фильме
Название: Папочка
Оригинальное название: Baby Daddy
Год выхода: 2012
Жанр: комедия, ситком
Режиссер: Майкл Лембек, Арлин Санфорд, Робби Кантримэн

В ролях: Жан-Люк Билодо, Таж Моури, Дерек Телер, Мелисса Питерман, Челси Кейн, Али Луиз Хартман

О фильме:
Сериал рассказывает о Бене, парне 20 с небольшим, которому бывшая подружка оставляет ребенка под дверью. Бен решает растить дочку самостоятельно. Помогает ему с этим мать Бонни, брат Дэнни, лучший друг Такер и близкая подруга Райли, которая втайне влюблена в Бена.



Страна: США
Студия: ABC Family
Продолжительность: ~ 00:22:00 серия
Перевод: Профессиональный (многоголосый, закадровый) [Fox Life]

Файл
Кодек: XviD / MP3
Качество: WEB-DLRip
Видео: 720x400 (1.80:1), 23.976 fps, ~1150 kbps avg, 0.17 bit/pixel
Звук:
Аудио (rus): 48 kHz, 2 ch, 128 kbps |Fox Life|
Аудио (eng): 48 kHz, 2 ch, 128 kbps |Original|
General
Complete name : I:Папочка (Сезон 1) Fox Lifebaby.daddy.s01e01.web-dlrip.rus.eng.to4ka.tv.avi
Format : AVI
Format/Info : Audio Video Interleave
File size : 250 MiB
Duration : 24mn 35s
Overall bit rate : 1 419 Kbps
Writing application : VirtualDubMod 1.6.0.0 SURROUND (build 2560/release)
Writing library : VirtualDubMod build 2560/release

Video
ID : 0
Format : MPEG-4 Visual
Format profile : Advanced Simple@L5
Format settings, BVOP : 1
Format settings, QPel : No
Format settings, GMC : No warppoints
Format settings, Matrix : Default (MPEG)
Codec ID : XVID
Codec ID/Hint : XviD
Duration : 24mn 35s
Bit rate : 1 149 Kbps
Width : 720 pixels
Height : 400 pixels
Display aspect ratio : 16:9
Frame rate : 23.976 fps
Color space : YUV
Chroma subsampling : 4:2:0
Bit depth : 8 bits
Scan type : Progressive
Compression mode : Lossy
Bits/(Pixel*Frame) : 0.166
Stream size : 202 MiB (81%)
Writing library : XviD 64

Audio #1
ID : 1
Format : MPEG Audio
Format version : Version 1
Format profile : Layer 3
Mode : Joint stereo
Mode extension : MS Stereo
Codec ID : 55
Codec ID/Hint : MP3
Duration : 24mn 35s
Bit rate mode : Constant
Bit rate : 128 Kbps
Channel(s) : 2 channels
Sampling rate : 48.0 KHz
Compression mode : Lossy
Stream size : 22.5 MiB (9%)
Alignment : Aligned on interleaves
Interleave, duration : 42 ms (1.00 video frame)
Interleave, preload duration : 504 ms

Audio #2
ID : 2
Format : MPEG Audio
Format version : Version 1
Format profile : Layer 3
Mode : Joint stereo
Mode extension : MS Stereo
Codec ID : 55
Codec ID/Hint : MP3
Duration : 24mn 35s
Bit rate mode : Constant
Bit rate : 128 Kbps
Channel(s) : 2 channels
Sampling rate : 48.0 KHz
Compression mode : Lossy
Stream size : 22.5 MiB (9%)
Alignment : Aligned on interleaves
Interleave, duration : 42 ms (1.00 video frame)
Interleave, preload duration : 504 ms



Скачать Папочка.Baby.Daddy.(сезон.01).(Майкл.Лембек.Арлин.Санфорд.Робби.Кантримэн).[2012.комедия.ситком.WEB-DLRip].[MVO.(Fox.Life)].torrent без регистрации
Золото ЗОЛОТАЯ РАЗДАЧА! СКАЧАННОЕ НЕ ЗАСЧИТЫВАЕТСЯ! Золото
Дата: Зарегистрирован   [ Тип: внутренний ] Как тут cкачать?
MAGNET ссылка
MAGNET ссылка


Скачать .torrent

14 KB

Статус: проверено DHT
Скачан: торрент - 135 раз, раздача полностью - 20 раз
Размер: 2,44 GB
Оценка:  - (Голосов: 0)
Поблагодарили: 0
Поделиться ссылкой на эту раздачу с друзьями:
В контактеFacebookОдноклассникиTwitterLivejournalМой МирLiveinternet
 

 
Показать сообщения:    


Вы не можете начинать темы
Вы не можете отвечать на сообщения
Вы не можете редактировать свои сообщения
Вы не можете удалять свои сообщения
Вы не можете голосовать в опросах
Вы не можете прикреплять файлы к сообщениям
Вы можете скачивать файлы