Loading...
Error

Скачать Смертельная гонка / Death Race (Пол У. С. Андерсон / Paul W.S. Anderson) [2008 г., фантастика, боевик, триллер, DVDRip] [AVO] (А.Гаврилов) торрент без регистрации

 
Статистика раздачи
Размер:  2,02 GB   |    Скачан:  121 раз
Сидов:  1  [  0 KB/s  ]  
 
Автор Сообщение

leon030982

[] 

Смертельная гонка / Death Race
«Подготовьтесь к убийственной поездке»



Год выпуска: 2008
Страна: США, Германия, Великобритания
Жанр: фантастика, боевик, триллер
Продолжительность: 01:50:35
Перевод: Авторский (одноголосный, закадровый) [А.Гаврилов]
Оригинальная дорожка: английский
Субтитры: нет

Режиссер: Пол У. С. Андерсон / Paul W.S. Anderson

В ролях: Джейсон Стэтхэм (Jensen Ames), Джоан Аллен (Hennessey), Иэн МакШейн (Coach), Тайриз Гибсон (Machine Gun Joe), Натали Мартинез (Case), Макс Райан (Pachenko), Джейсон Кларк (Ulrich), Фредерик Колер (Lists), Джейкоб Варгас (Gunner), Джастин Мэдер (Travis Colt), Роберт ЛаСардо (Grimm), Робин Шоу (14K)

Описание: Трехкратный чемпион-гонщик Дженсен Эймс посажен в тюрьму за убийство, которого не совершал. Вместо того, чтобы выпустить его на свободу, тюремщики заставляют его вместе с самыми отъявленными преступниками участвовать в кровавом состязании. Оказавшись за рулем чудовищного автомобиля, оборудованного автоматами, огнеметами и гранатометами, этот отчаянный человек разрушит все на своем пути, чтобы выиграть самую зрелищную гонку на выживание на Земле.


Качество: DVDRip
Формат: AVI
Видео кодек: XviD
Аудио кодек: AC3
Видео: 720x304 (2.37:1), 23.976 fps, XviD Final 1.0.1 (build 35) ~1711 kbps avg, 0.33 bit/pixel
Аудио #1: AC3 Dolby Digital, 3/2 (L,C,R,l,r) + LFE ch, ~448.00 kbps avg [А.Гаврилов]
Аудио #2: AC3 Dolby Digital, 3/2 (L,C,R,l,r) + LFE ch, ~448.00 kbps avg [Eng]
General
Complete name : E:\INTERNET\SmertelnayGonka.2008.XviD.DVDRip.avi
Format : AVI
Format/Info : Audio Video Interleave
Format profile : OpenDML
File size : 2.02 GiB
Duration : 1h 50mn
Overall bit rate : 2 615 Kbps
Writing application : VirtualDubModRus 1.5.10.2 (build 2542/release)
Writing library : VirtualDubMod build 2542/release

Video
ID : 0
Format : MPEG-4 Visual
Format profile : Simple@L3
Format settings, BVOP : Yes
Format settings, QPel : No
Format settings, GMC : No warppoints
Format settings, Matrix : Custom
Codec ID : XVID
Codec ID/Hint : XviD
Duration : 1h 50mn
Bit rate : 1 700 Kbps
Width : 720 pixels
Height : 304 pixels
Display aspect ratio : 2.35:1
Frame rate : 23.976 fps
Color space : YUV
Chroma subsampling : 4:2:0
Bit depth : 8 bits
Scan type : Progressive
Bits/(Pixel*Frame) : 0.324
Stream size : 1.32 GiB (65%)
Writing library : XviD 1.0.1 (UTC 2004-06-05)

Audio #1
ID : 1
Format : AC-3
Format/Info : Audio Coding 3
Mode extension : CM (complete main)
Codec ID : 2000
Duration : 1h 50mn
Bit rate mode : Constant
Bit rate : 448 Kbps
Channel(s) : 6 channels
Channel positions : Front: L C R, Side: L R, LFE
Sampling rate : 48.0 KHz
Bit depth : 16 bits
Video delay : 16ms
Stream size : 355 MiB (17%)
Alignment : Split accross interleaves
Interleave, duration : 42 ms (1.00 video frame)
Interleave, preload duration : 500 ms
Language : Russian

Audio #2
ID : 2
Format : AC-3
Format/Info : Audio Coding 3
Mode extension : CM (complete main)
Codec ID : 2000
Duration : 1h 50mn
Bit rate mode : Constant
Bit rate : 448 Kbps
Channel(s) : 6 channels
Channel positions : Front: L C R, Side: L R, LFE
Sampling rate : 48.0 KHz
Bit depth : 16 bits
Video delay : 12ms
Stream size : 355 MiB (17%)
Alignment : Split accross interleaves
Interleave, duration : 42 ms (1.00 video frame)
Interleave, preload duration : 500 ms
Language : English




Скачать Смертельная.гонка.Death.Race.(Пол.У.С.Андерсон.Paul.W.S.Anderson).[2008.г.фантастика.боевик.триллер.DVDRip].[AVO].(А.Гаврилов).torrent без регистрации
Золото ЗОЛОТАЯ РАЗДАЧА! СКАЧАННОЕ НЕ ЗАСЧИТЫВАЕТСЯ! Золото
Дата: Зарегистрирован   [ Тип: внутренний ] Как тут cкачать?
MAGNET ссылка
MAGNET ссылка


Скачать .torrent

82 KB

Статус: проверено DHT
Скачан: торрент - 121 раз, раздача полностью - 88 раз
Размер: 2,02 GB
Оценка:  5 (Голосов: 1)
Поблагодарили: 0
Поделиться ссылкой на эту раздачу с друзьями:
В контактеFacebookОдноклассникиTwitterLivejournalМой МирLiveinternet
 

 
Показать сообщения:    


Вы не можете начинать темы
Вы не можете отвечать на сообщения
Вы не можете редактировать свои сообщения
Вы не можете удалять свои сообщения
Вы не можете голосовать в опросах
Вы не можете прикреплять файлы к сообщениям
Вы можете скачивать файлы