Loading...
Error

Скачать Стон Черной Змеи / Black Snake Moan (Крэйг Брюэр) [2006, драма, BDRip-AVC] [DVO] (НТВ+) торрент без регистрации

 
Статистика раздачи
Размер:  2,25 GB   |    Скачан:  105 раз

Полного источника не было: 23 минуты

 
Автор Сообщение

leon030982

[] 

Стон Черной Змеи / Black Snake Moan


Год выхода: 2006
Жанр: драма
Страна: США
Студия: New Deal Productions, Paramount Classics, Southern Cross the Dog Productions
Продолжительность: 01:55:33
Перевод: Профессиональный (двухголосый закадровый) [НТВ+]

Режиссер: Крэйг Брюэр

В ролях: Сэмюэл Л. Джексон, Кристина Риччи, Джастин Тимберлэйк, Джон Котрэн мл., Дэвид Баннер, Майкл Рэймонд-Джеймс, Адриан Ленокс, Ким Ричардс, Неймус К. Уильямс, Леонард Л. Томас, Руби Уилсон, Клод Филлипс, Эми Лавер, Клэр Грант, Джефф Поуп, Чарльз «Скип» Питтс, Уилли Холл, Джон Маллой, Т.С. Шарп, Джон Стилл, Джаред Хопкинс, Тош Ньюман, Коди Блок, Бенжамин Реднур, Кэрнелл Пеппер, Дэвид Чэпман, Джо Линн Палмер, Рэймонд Нил, Джон Пикл, Ким Джастис

О фильме:
Богобоязненный человек берет к себе на воспитание молодую девушку, страдающую типичными проблемами переходного возраста, навлекающими на себе всю череду возможных неприятностей. Ища, но не находя себе близкого человека, она углубляется в свои мысли, переполненные депрессивным содержанием. Замечая это, её воспитатель желает вылечить подопечную, показав, что жизнь не так уж и плоха.



Качество: BDRip-AVC
Кодек: h.264
Видео: 2013 Kбит/с, 1024x426, 23.976 кадр/с
Звук:
1: Русский (АС3, 6 ch, 384 Кбит/с) Профессиональный двухголосый [НТВ+]
2: Английский (АС3, 6 ch, 384 Кбит/с)

Субтитры: Русские, английские

---------------------------------------------------------------------------
x264 [info]: frame I:1293 Avg QP:17.28 size: 76257
x264 [info]: frame P:37604 Avg QP:20.26 size: 22499
x264 [info]: frame B:127344 Avg QP:21.90 size: 6281
---------------------------------------------------------------------------

Полное имя : Black.Snake.Moan.2006.x264.BDRip.(AVC).0ptimus.mkv
Формат : Matroska
Версия формата : Version 4 / Version 2
Размер файла : 2,25 Гбайт
Продолжительность : 1 ч. 55 м.
Общий поток : 2783 Кбит/сек
Название фильма : Стон черной змеи | Black Snake Moan [2006] -=BDRip (AVC) by 0ptimus=-
Дата кодирования : UTC 2013-09-21 10:16:44
Программа кодирования : mkvmerge v6.1.0 ('Old Devil') built on Mar 2 2013 14:32:37
Библиотека кодирования : libebml v1.3.0 + libmatroska v1.4.0

Видео
Идентификатор : 1
Формат : AVC
Формат/Информация : Advanced Video Codec
Профиль формата : High@L4.1
Параметр CABAC формата : Да
Параметр ReFrames формата : 10 кадров
Идентификатор кодека : V_MPEG4/ISO/AVC
Продолжительность : 1 ч. 55 м.
Битрейт : 2013 Кбит/сек
Ширина : 1024 пикселя
Высота : 426 пикселей
Соотношение сторон : 2,40:1
Частота кадров : 23,976 кадра/сек
Цветовое пространство : YUV
Субдискретизация насыщенности : 4:2:0
Битовая глубина : 8 бит
Тип развёртки : Прогрессивная
Бит/(Пиксели*Кадры) : 0.192
Размер потока : 1,58 Гбайт (70%)
Заголовок : Rip by 0ptimus
Библиотека кодирования : x264 core 133 r2334 a3ac64b
Настройки программы : cabac=1 / ref=10 / deblock=1:-3:-3 / analyse=0x3:0x113 / me=umh / subme=10 / psy=1 / psy_rd=1.00:0.20 / mixed_ref=1 / me_range=32 / chroma_me=1 / trellis=2 / 8x8dct=1 / cqm=0 / deadzone=21,11 / fast_pskip=0 / chroma_qp_offset=-3 / threads=3 / lookahead_threads=1 / sliced_threads=0 / nr=0 / decimate=0 / interlaced=0 / bluray_compat=0 / constrained_intra=0 / bframes=8 / b_pyramid=2 / b_adapt=2 / b_bias=0 / direct=3 / weightb=1 / open_gop=0 / weightp=2 / keyint=240 / keyint_min=23 / scenecut=40 / intra_refresh=0 / rc_lookahead=40 / rc=2pass / mbtree=0 / bitrate=2013 / ratetol=1.0 / qcomp=0.60 / qpmin=0 / qpmax=69 / qpstep=4 / cplxblur=20.0 / qblur=0.5 / vbv_maxrate=50000 / vbv_bufsize=50000 / nal_hrd=none / ip_ratio=1.40 / pb_ratio=1.30 / aq=1:1.00
Язык : English

Аудио #1
Идентификатор : 2
Формат : AC-3
Формат/Информация : Audio Coding 3
Расширение режима : CM (complete main)
Идентификатор кодека : A_AC3
Продолжительность : 1 ч. 55 м.
Вид битрейта : Постоянный
Битрейт : 384 Кбит/сек
Каналы : 6 каналов
Расположение каналов : Front: L C R, Side: L R, LFE
Частота : 48,0 КГц
Битовая глубина : 16 бит
Метод сжатия : С потерями
Размер потока : 317 Мбайт (14%)
Заголовок : Двухголосый закадровый [НТВ+] AC3 5.1 @ 384 kbps
Язык : Russian

Аудио #2
Идентификатор : 3
Формат : AC-3
Формат/Информация : Audio Coding 3
Расширение режима : CM (complete main)
Идентификатор кодека : A_AC3
Продолжительность : 1 ч. 55 м.
Вид битрейта : Постоянный
Битрейт : 384 Кбит/сек
Каналы : 6 каналов
Расположение каналов : Front: L C R, Side: L R, LFE
Частота : 48,0 КГц
Битовая глубина : 16 бит
Метод сжатия : С потерями
Размер потока : 317 Мбайт (14%)
Заголовок : AC3 5.1 @ 384 kbps
Язык : English

Текст #1
Идентификатор : 4
Формат : UTF-8
Идентификатор кодека : S_TEXT/UTF8
Идентификатор кодека/Информация : UTF-8 Plain Text
Язык : Russian

Текст #2
Идентификатор : 5
Формат : UTF-8
Идентификатор кодека : S_TEXT/UTF8
Идентификатор кодека/Информация : UTF-8 Plain Text
Язык : English

Меню
00:00:00.000 : en:Through Their Love
00:07:23.526 : en:Say You Love Me
00:16:12.305 : en:Personal Demons
00:25:05.921 : en:Discovery
00:32:02.462 : en:Fever Dreams
00:40:34.307 : en:I Aim to Cure You
00:47:44.528 : en:Chained
00:52:51.668 : en:Showing Appreciation
00:59:07.377 : en:Whats Your Heaven?
01:05:47.861 : en:Discharge
01:15:14.301 : en:Howling Back
01:21:33.305 : en:Let It Out
01:28:02.110 : en:Night Owls
01:35:05.909 : en:That Kind of Blues
01:40:51.504 : en:Faith, Hope and Love
01:49:34.568 : en:Were Okay


Релиз от:



Скачать Стон.Черной.Змеи.Black.Snake.Moan.(Крэйг.Брюэр).[2006.драма.BDRip-AVC].[DVO].(НТВ+).torrent без регистрации
Золото ЗОЛОТАЯ РАЗДАЧА! СКАЧАННОЕ НЕ ЗАСЧИТЫВАЕТСЯ! Золото
Дата: Зарегистрирован   [ Тип: внутренний ] Как тут cкачать?
MAGNET ссылка
MAGNET ссылка


Скачать .torrent

23 KB

Статус: проверено DHT
Скачан: торрент - 105 раз, раздача полностью - 6 раз
Размер: 2,25 GB
Оценка:  - (Голосов: 0)
Поблагодарили: 0
Поделиться ссылкой на эту раздачу с друзьями:
В контактеFacebookОдноклассникиTwitterLivejournalМой МирLiveinternet
 

 
Показать сообщения:    


Вы не можете начинать темы
Вы не можете отвечать на сообщения
Вы не можете редактировать свои сообщения
Вы не можете удалять свои сообщения
Вы не можете голосовать в опросах
Вы не можете прикреплять файлы к сообщениям
Вы можете скачивать файлы