Loading...
Error

Скачать Заложники / Hostages (01x01-12 из 15) ( Джейсон Энслер, Джеффри Начманофф) [2013, триллер, драма, WEB-DL] [720p] [MVO (ViruseProject)] торрент без регистрации

 
Статистика раздачи
Размер:  17,17 GB   |    Скачан:  120 раз
Сидов:  1  [  0 KB/s  ]  
 
Автор Сообщение

МихаНЕзатор

[] 

Заложники / Hostages


Год выпуска: 2013
Страна: США
Жанр: триллер, драма
Продолжительность: 00:45:00
Перевод: Любительский (многоголосый закадровый) [ViruseProject]
Субтитры: Английские (iTunes)
Режиссёр: Джейсон Энслер, Джеффри Начманофф

В ролях: Тони Коллетт, Дилан МакДермотт, Тейт Донован, Куинн Шепард, Матеус Уорд, Билли Браун, Сандрин Холт, Риз Койро, Джеймс Нафтон, Тайлер Эллиот Бурк

Описание: Hostages остросюжетный триллер, рассказывающий о докторе Эллен Сандерс, первоклассном хирурге, втянутой в политический заговор после того, как ее семью берет в заложники вышедший из-под контроля агент ФБР Дункан Карлайл. Карлайл приказывает ей убить президента, когда она будет проводить над ним операцию. Жизнь семьи Эллен находится под угрозой и Эллен предстоит сделать непосильный выбор, чтобы спасти своего мужа, дочку и сына. Ставки между Эллен и Карлайлом высоки как никогда, а грань между правильным и неправильным никогда не была столь размытой.

Качество: WEB-DL 720p
Формат: MKV
Видео кодек: AVC
Аудио кодек: AC3
Видео: AVC, 1280x720 (16:9), 23.976 fps, 4 015 Kbps (0.182 bit/pixel)
Аудио #1: AC3, 48 KHz, 6 ch, 384 Kbps (Rus)
Аудио #2: AC3, 48 KHz, 6 ch, 384 Kbps (Eng)



Релиз:

Перевод: Нотабеноид
Монтаж: Татьяна Романовская
Озвучка: Алла Блаер (с 1 по 6 серии) , *Марина Видякина (с 7 серии), *Татьяна Романовская, *Борис Александров, *Дмитрий Иванов

АНОНСЫ ПОПУЛЯРНЫХ РАЗДАЧ


11.01.2014 г. торент обновлён, добавлена 10-12 серия!

Complete name : Hostages.S01E01.720p.WEB-DL.Rus.Eng-ViruseProject.mkv
Format : Matroska
Format version : Version 4 / Version 2
File size : 1.47 GiB
Duration : 43mn 7s
Overall bit rate : 4 880 Kbps
Encoded date : UTC 2013-09-30 18:47:25
Writing application : mkvmerge v6.1.0 ('Old Devil') built on Mar 4 2013 09:10:42
Writing library : libebml v1.3.0 + libmatroska v1.4.0

Video
ID : 1
Format : AVC
Format/Info : Advanced Video Codec
Format profile : High@L3.1
Format settings, CABAC : No
Format settings, ReFrames : 2 frames
Codec ID : V_MPEG4/ISO/AVC
Duration : 43mn 7s
Bit rate : 4 015 Kbps
Width : 1 280 pixels
Height : 720 pixels
Display aspect ratio : 16:9
Frame rate mode : Constant
Frame rate : 23.976 fps
Color space : YUV
Chroma subsampling : 4:2:0
Bit depth : 8 bits
Scan type : Progressive
Bits/(Pixel*Frame) : 0.182
Stream size : 1.21 GiB (82%)
Language : English
Default : Yes
Forced : No
Color primaries : BT.709
Transfer characteristics : BT.709
Matrix coefficients : BT.709

Audio #1
ID : 2
Format : AC-3
Format/Info : Audio Coding 3
Mode extension : CM (complete main)
Format settings, Endianness : Big
Codec ID : A_AC3
Duration : 43mn 7s
Bit rate mode : Constant
Bit rate : 384 Kbps
Channel(s) : 6 channels
Channel positions : Front: L C R, Side: L R, LFE
Sampling rate : 48.0 KHz
Bit depth : 16 bits
Compression mode : Lossy
Stream size : 118 MiB (8%)
Title : MVO - ViruseProject
Language : Russian
Default : Yes
Forced : No

Audio #2
ID : 3
Format : AC-3
Format/Info : Audio Coding 3
Mode extension : CM (complete main)
Format settings, Endianness : Big
Codec ID : A_AC3
Duration : 43mn 7s
Bit rate mode : Constant
Bit rate : 384 Kbps
Channel(s) : 6 channels
Channel positions : Front: L C R, Side: L R, LFE
Sampling rate : 48.0 KHz
Bit depth : 16 bits
Compression mode : Lossy
Stream size : 118 MiB (8%)
Language : English
Default : No
Forced : No

Text
ID : 4
Format : UTF-8
Codec ID : S_TEXT/UTF8
Codec ID/Info : UTF-8 Plain Text
Title : CC
Language : English
Default : No
Forced : No

Внимание! Раздача ведётся путём добавления новых серий; при каждом добавлении создаётся новый торрент. Чтобы начать докачку новой серии, пользователям необходимо сделать следующее: (1) остановить скачивание, (2) удалить старый торрент у себя из клиента (старые серии удалять не надо), (3) скачать новый торрент и запустить его у себя в клиенте вместо старого, при этом указать клиенту путь в старую папку куда и должно происходить скачивание новых серий.
Ваш клиент при этом должен произвести хеширование (проверку) старой папки (если не производит сам - помогите ему сделать это), и будет докачивать только те серии которых у вас ещё нет. Старые серии при этом не удаляются, а продолжают раздаваться!
Eсли вы уже удалили старые серии, то предотвратить повторную закачку старых серий можно, отжав галочку в соответствующих местах при запуске нового торрента.



Скачать Заложники.Hostages.(01x01-12.из.15).(.Джейсон.Энслер.Джеффри.Начманофф).[2013.триллер.драма.WEB-DL].[720p].[MVO.(ViruseProject)].torrent без регистрации
Золото ЗОЛОТАЯ РАЗДАЧА! СКАЧАННОЕ НЕ ЗАСЧИТЫВАЕТСЯ! Золото
Дата: Зарегистрирован   [ Тип: внутренний ] Как тут cкачать?
MAGNET ссылка
MAGNET ссылка


Скачать .torrent

87 KB

Статус: проверено DHT
Скачан: торрент - 120 раз, раздача полностью - 7 раз
Размер: 17,17 GB
Оценка:  - (Голосов: 0)
Поблагодарили: 1
Поделиться ссылкой на эту раздачу с друзьями:
В контактеFacebookОдноклассникиTwitterLivejournalМой МирLiveinternet
 

 

МихаНЕзатор

[] 

Раздача обновлена
 
Показать сообщения:    


Вы не можете начинать темы
Вы не можете отвечать на сообщения
Вы не можете редактировать свои сообщения
Вы не можете удалять свои сообщения
Вы не можете голосовать в опросах
Вы не можете прикреплять файлы к сообщениям
Вы можете скачивать файлы