Loading...
Error

Скачать Когда звонит незнакомец / When a Stranger Calls (Фред Уолтон) [1979, ужасы, триллер, BDRip-AVC] [AVO]+[Оригинал]+[Sub] торрент без регистрации

 
Статистика раздачи
Размер:  2,73 GB   |    Скачан:  104 раза
Сидов:  1  [  0 KB/s  ]  
 
Автор Сообщение

Marsianka

[] 

Информация о фильме
Название: Когда звонит незнакомец
Оригинальное название: When a Stranger Calls
Год выхода: 1979
Жанр: ужасы, триллер
Режиссер: Фред Уолтон
В ролях: Кэрол Кейн, Рутаня Олда, Кармен Ардженциано, Керстен Ларкин, Уильям Бойетт, Чарльз Дёрнинг, Рон ОНил, Хиту, Рейчел Робертс, Тони Бекли, Коллин Дьюхёрст, Майкл Чэмпион, Джозеф Реале, Эд Райт, Луиз Райт
О фильме:Студентка Джилл Джонсон остается сиделкой с двумя детьми, родители которых уезжают на уик-энд в город. Вскоре после того, как Джилл укладывает детей спать, раздается телефонный звонок. Незнакомый мужской голос спрашивает Джилл, что она будет делать следующим вечером. Поначалу незнакомец ведет обыкновенный разговор, что Джилл даже развлекает в практически пустом доме. Вскоре звонки повторяются и ничего не значащие беседы начинают раздражать Джилл. А когда незнакомец спрашивает: «Вы проверили детей?», девушка пугается не на шутку. Она понимает, что звонящий незнакомец за ней наблюдает



Страна: США
Студия: Columbia Pictures Corporation, Melvin Simon Productions
Продолжительность: 01:37:24
Перевод: Авторский одноголосый (А. Гаврилов) + оригинал

Файл
Кодек: MPEG-4 AVC
Качество: BDRip-AVC
Видео: 3500 Кбит/с, 1024х554, 23.976 кадр/с
Аудио #1: Русский (AC3, 2 ch, 256 Кбит/с) / Авторский одноголосый (А. Гаврилов)
Аудио #2: Английский (AC3, 2 ch, 256 Кбит/с)
Субтитры: Английские
Семпл
Общее
Уникальный идентификатор : 240902690918963618167232297601061752345 (0xB53C2BAD419505EA919BDA36ACF20E19)
Полное имя : D:2Films DРелизыKogda.zvonit.neznakomec.1979.x264.BDRip.AVC.MediaClub.mkv
Формат : Matroska
Версия формата : Version 2
Размер файла : 2,73 Гбайт
Продолжительность : 1 ч. 37 м.
Общий поток : 4007 Кбит/сек
Название фильма : -= MediaClub =- rip by Lefevr
Дата кодирования : UTC 2013-11-27 12:28:04
Программа кодирования : mkvmerge v5.4.0 ('Piper') built on Mar 10 2012 13:34:39
Библиотека кодирования : libebml v1.2.3 + libmatroska v1.3.0

Видео
Идентификатор : 1
Формат : AVC
Формат/Информация : Advanced Video Codec
Профиль формата : High@L4.1
Параметр CABAC формата : Да
Параметр ReFrames формата : 9 кадров
Идентификатор кодека : V_MPEG4/ISO/AVC
Продолжительность : 1 ч. 37 м.
Битрейт : 3500 Кбит/сек
Ширина : 1024 пикселя
Высота : 554 пикселя
Соотношение сторон : 1,85:1
Режим частоты кадров : Постоянный
Частота кадров : 23,976 кадра/сек
Цветовое пространство : YUV
Субдискретизация насыщенности : 4:2:0
Битовая глубина : 8 бит
Тип развёртки : Прогрессивная
Бит/(Пиксели*Кадры) : 0.257
Размер потока : 2,32 Гбайт (85%)
Заголовок : Kogda.zvonit.neznakomec.1979.x264.BDRip.AVC.MediaClub
Библиотека кодирования : x264 core 130 r2273 b3065e6
Настройки программы : cabac=1 / ref=9 / deblock=1:-3:-3 / analyse=0x3:0x133 / me=umh / subme=11 / psy=1 / psy_rd=1.00:0.25 / mixed_ref=1 / me_range=32 / chroma_me=1 / trellis=2 / 8x8dct=1 / cqm=0 / deadzone=21,11 / fast_pskip=0 / chroma_qp_offset=-4 / threads=6 / lookahead_threads=1 / sliced_threads=0 / nr=0 / decimate=0 / interlaced=0 / bluray_compat=0 / constrained_intra=0 / bframes=8 / b_pyramid=2 / b_adapt=2 / b_bias=0 / direct=3 / weightb=1 / open_gop=0 / weightp=2 / keyint=240 / keyint_min=23 / scenecut=40 / intra_refresh=0 / rc=2pass / mbtree=0 / bitrate=3500 / ratetol=1.0 / qcomp=0.60 / qpmin=0 / qpmax=69 / qpstep=4 / cplxblur=20.0 / qblur=0.5 / ip_ratio=1.40 / pb_ratio=1.30 / aq=1:1.00
Язык : English
Default : Да
Forced : Нет

Аудио #1
Идентификатор : 2
Формат : AC-3
Формат/Информация : Audio Coding 3
Расширение режима : CM (complete main)
Параметр Endianness формата : Big
Идентификатор кодека : A_AC3
Продолжительность : 1 ч. 37 м.
Вид битрейта : Постоянный
Битрейт : 256 Кбит/сек
Каналы : 2 канала
Расположение каналов : Front: L R
Частота : 48,0 КГц
Битовая глубина : 16 бит
Метод сжатия : С потерями
Размер потока : 178 Мбайт (6%)
Заголовок : TRACK_01_AVO_RUS_Gavrilov
Язык : Russian
Default : Да
Forced : Да

Аудио #2
Идентификатор : 3
Формат : AC-3
Формат/Информация : Audio Coding 3
Расширение режима : CM (complete main)
Параметр Endianness формата : Big
Идентификатор кодека : A_AC3
Продолжительность : 1 ч. 37 м.
Вид битрейта : Постоянный
Битрейт : 256 Кбит/сек
Каналы : 2 канала
Расположение каналов : Front: L R
Частота : 48,0 КГц
Битовая глубина : 16 бит
Метод сжатия : С потерями
Размер потока : 178 Мбайт (6%)
Заголовок : TRACK_02_ORIGINAL_ENG
Язык : English
Default : Нет
Forced : Нет

Текст
Идентификатор : 4
Формат : UTF-8
Идентификатор кодека : S_TEXT/UTF8
Идентификатор кодека/Информация : UTF-8 Plain Text
Заголовок : TEXT_01_SUB_ENG
Язык : English
Default : Нет
Forced : Нет

Меню
00:00:00.000 : en:00:00:00.000
00:04:20.886 : en:00:04:20.886
00:13:40.820 : en:00:13:40.820
00:20:52.168 : en:00:20:52.168
00:23:03.382 : en:00:23:03.382
00:29:42.781 : en:00:29:42.781
00:37:08.226 : en:00:37:08.226
00:47:57.875 : en:00:47:57.875
00:54:51.288 : en:00:54:51.288
00:59:37.991 : en:00:59:37.991
01:04:17.270 : en:01:04:17.270
01:11:53.309 : en:01:11:53.309
01:16:52.608 : en:01:16:52.608
01:24:09.044 : en:01:24:09.044
01:31:37.492 : en:01:31:37.492
x264 [info]: frame I:838 Avg QP:13.90 size: 94521
x264 [info]: frame P:27343 Avg QP:16.40 size: 37774
x264 [info]: frame B:111935 Avg QP:18.01 size: 12892
Сохранены оригинальные чаптеры как на Blu-ray.

За помощь в подготовке релиза спасибо Константину - Painter и Виталию - neni

За постер спасибо Вадиму - V_ad от Media-Art-Club
Релиз от:

Автор рипа:



Скачать Когда.звонит.незнакомец.When.a.Stranger.Calls.(Фред.Уолтон).[1979.ужасы.триллер.BDRip-AVC].[AVO]+[Оригинал]+[Sub].torrent без регистрации
Золото ЗОЛОТАЯ РАЗДАЧА! СКАЧАННОЕ НЕ ЗАСЧИТЫВАЕТСЯ! Золото
Дата: Зарегистрирован   [ Тип: внутренний ] Как тут cкачать?
MAGNET ссылка
MAGNET ссылка


Скачать .torrent

14 KB

Статус: проверено DHT
Скачан: торрент - 104 раз, раздача полностью - 1 раз
Размер: 2,73 GB
Оценка:  - (Голосов: 0)
Поблагодарили: 1
Поделиться ссылкой на эту раздачу с друзьями:
В контактеFacebookОдноклассникиTwitterLivejournalМой МирLiveinternet
 

 
Показать сообщения:    


Вы не можете начинать темы
Вы не можете отвечать на сообщения
Вы не можете редактировать свои сообщения
Вы не можете удалять свои сообщения
Вы не можете голосовать в опросах
Вы не можете прикреплять файлы к сообщениям
Вы можете скачивать файлы