Loading...
Error

Скачать Клевый парень / Bowfinger (Фрэнк Оз / Frank Oz) [1999, Комедия, HDTVRip] [AVO] (Кашкин) + [DVO] торрент без регистрации

 
Статистика раздачи
Размер:  1,36 GB   |    Скачан:  5359 раз
Сидов:  1  [  0 KB/s  ]  
 
Автор Сообщение

leon030982

[] 


Клевый парень / Bowfinger



Год выпуска: 1999
Выпущено: США
Жанр: комедия
Продолжительность: 01:36:06
Перевод №1: Авторский (одноголосный, закадровый) [Кашкин]
Перевод №2: Профессиональный (двухголосный)
Режиссер: Фрэнк Оз / Frank Oz

В ролях: Стив Мартин, Эдди Мерфи, Хизер Грэм, Роберт Дауни-мл., Теренс Стамп, Кристин Барански

Описание: Бобби Боуфингер — клевый парень! Не беда, что он абсолютно бестолковый режиссер и самый большой проходимец в Голливуде. Бобби задумал снять настоящий боевик. И не просто боевик, а блокбастер, который принесет огромную кассу и немеркнущую славу. Что же для этого потребуется? Во — первых, — хороший сценарий! Сценарий у Бобби есть. И какой!
Есть лишь одна маленькая проблема: Кит Рэмзи сниматься у Бобби не собирается. И тогда «непотопляемый» Боуфингер находит выход. Он будет снимать Кита Рэмзи «скрытой» камерой, создавая ситуации, соответствующие сценарию.


Качество: HDTVRip
Формат: AVI
Видео кодек: XviD
Аудио кодек: AC3
Видео: 720x384 (1.88:1), 23.976 fps, XviD build 50 ~1568 kbps avg, 0.24 bit/pixel
Аудио №1: 48 kHz, AC3 Dolby Digital, 2/0 (L,R) ch, ~224.00 kbps avg[Кашкин]
Аудио №2: 48 kHz, AC3 Dolby Digital, 2/0 (L,R) ch, ~224.00 kbps avg[Двухголосный]
General
Complete name : E:\INTERNET\Bowfinger.1999.HDTVRip.[AVO]+[DVO].avi
Format : AVI
Format/Info : Audio Video Interleave
File size : 1.36 GiB
Duration : 1h 36mn
Overall bit rate : 2 023 Kbps
Writing application : VirtualDubMod 1.5.10.3 (build 2550/release)
Writing library : VirtualDubMod build 2550/release

Video
ID : 0
Format : MPEG-4 Visual
Format profile : Advanced Simple@L5
Format settings, BVOP : Yes
Format settings, QPel : No
Format settings, GMC : No warppoints
Format settings, Matrix : Custom
Codec ID : XVID
Codec ID/Hint : XviD
Duration : 1h 36mn
Bit rate : 1 570 Kbps
Width : 720 pixels
Height : 384 pixels
Display aspect ratio : 1.875
Frame rate : 23.976 fps
Color space : YUV
Chroma subsampling : 4:2:0
Bit depth : 8 bits
Scan type : Progressive
Bits/(Pixel*Frame) : 0.237
Stream size : 1.05 GiB (78%)
Writing library : XviD 1.2.1 (UTC 2008-12-04)

Audio #1
ID : 1
Format : AC-3
Format/Info : Audio Coding 3
Mode extension : CM (complete main)
Codec ID : 2000
Duration : 1h 32mn
Bit rate mode : Constant
Bit rate : 224 Kbps
Channel(s) : 2 channels
Channel positions : Front: L R
Sampling rate : 48.0 KHz
Bit depth : 16 bits
Stream size : 148 MiB (11%)
Alignment : Split accross interleaves
Interleave, duration : 43 ms (1.04 video frame)
Interleave, preload duration : 500 ms

Audio #2
ID : 2
Format : AC-3
Format/Info : Audio Coding 3
Mode extension : CM (complete main)
Codec ID : 2000
Duration : 1h 36mn
Bit rate mode : Constant
Bit rate : 224 Kbps
Channel(s) : 2 channels
Channel positions : Front: L R
Sampling rate : 48.0 KHz
Bit depth : 16 bits
Stream size : 154 MiB (11%)
Alignment : Split accross interleaves
Interleave, duration : 42 ms (1.00 video frame)
Interleave, preload duration : 500 ms





Скачать Клевый.парень.Bowfinger.(Фрэнк.Оз.Frank.Oz).[1999.Комедия.HDTVRip].[AVO].(Кашкин).+.[DVO].torrent без регистрации
Золото ЗОЛОТАЯ РАЗДАЧА! СКАЧАННОЕ НЕ ЗАСЧИТЫВАЕТСЯ! Золото
Дата: Зарегистрирован   [ Тип: внутренний ] Как тут cкачать?
MAGNET ссылка
MAGNET ссылка


Скачать .torrent

14 KB

Статус: проверено DHT
Скачан: торрент - 5359 раз, раздача полностью - 11 раз
Размер: 1,36 GB
Оценка:  - (Голосов: 0)
Поблагодарили: 2
Поделиться ссылкой на эту раздачу с друзьями:
В контактеFacebookОдноклассникиTwitterLivejournalМой МирLiveinternet
 

 
Показать сообщения:    


Вы не можете начинать темы
Вы не можете отвечать на сообщения
Вы не можете редактировать свои сообщения
Вы не можете удалять свои сообщения
Вы не можете голосовать в опросах
Вы не можете прикреплять файлы к сообщениям
Вы можете скачивать файлы