Loading...
Error

Скачать К-9: Собачья работа / K-9 (Род Дэниэл) [1989, комедия, боевик, криминал, DVDRip-AVC] [DVO] [Лицензия] торрент без регистрации

 
Статистика раздачи
Размер:  1,45 GB   |    Скачан:  107 раз
Сидов:  1  [  0 KB/s  ]  
 
Автор Сообщение

Marsianka

[] 

Информация о фильме
Название: К-9: Собачья работа
Оригинальное название: K-9
Год выхода: 1989
Жанр: комедия, боевик, криминал
Режиссер: Род Дэниэл
В ролях: Джеймс Белуши, Мэл Харрис, Кевин Тай, Джеймс Хэнди, Эд ОНил, Джерри Ли, Дэниэл Дэвис, Коттер Смит, Джон Снайдер, Прюитт Тэйлор Винс, Шерман Ховард, Джефф Эллин, Дэвид Хэскелл, Алан Блюменфилд, Уильям Сэдлер, Марджори Брэнсфилд, Марк Муринг, Джерри Ливайн, Рик Чичетти, Дэн Кастелланета, Вендел Мелдрам, Джон Кастелланос, Коллин Моррис, Дж.В. Смит, Дин Хилл, Гари Комбс, Люси Батлер, Вик Кучия, Ральф Елиас

О фильме:
Два друга-напарника. Два самых крутых полицейских в городе... Угадайте, кто из них сообразительней? Классическая комедия Рода Дэниела с несравненным Джеймсом Белуши в главной роли. Никто не может ужиться со специальным агентом отдела по борьбе с наркотиками Томом Дули (Белуши). От этого "крутого" служителя законы напарники бегут во все стороны. Поэтому начальство решило определить в партнеры Тому хорошо подготовленного и опытного полицейского, у которого свой особый нюх на преступников, - заслуженного пса по имени Джерри Ли. И как ни странно, Дули и отважный Джерри Ли отлично сработались. Вместе двум копам предстоит "разобраться" со всеми злодеями, познакомиться с отличными девочками, стать гордостью полицейского управления и познать, что такое настоящая, "мужская" дружба.


Страна: США
Продолжительность: 01:37:09
Перевод: Профессиональный двухголосый закадровый (Лицензия)
Файл
Рип с DVD9
Кодек: h264
Качество: DVDRip-AVC
Видео: Width : 720 pixels, Height : 392 pixels, Bit rate : 1 943 Kbps, 23.976 fps
Звук: Русский AC-3, 192 Kbps, 2 channels

Video
ID : 1
Format : AVC
Format/Info : Advanced Video Codec
Format profile : High@L4.1
Format settings, CABAC : Yes
Format settings, ReFrames : 5 frames
Codec ID : V_MPEG4/ISO/AVC
Duration : 1h 37mn
Bit rate : 1 943 Kbps
Width : 720 pixels
Height : 392 pixels
Display aspect ratio : 1.85:1
Frame rate mode : Constant
Frame rate : 23.976 fps
Color space : YUV
Chroma subsampling : 4:2:0
Bit depth : 8 bits
Scan type : Progressive
Bits/(Pixel*Frame) : 0.287
Stream size : 1.29 GiB (89%)

Audio
ID : 2
Format : AC-3
Format/Info : Audio Coding 3
Mode extension : CM (complete main)
Format settings, Endianness : Big
Codec ID : A_AC3
Duration : 1h 37mn
Bit rate mode : Constant
Bit rate : 192 Kbps
Channel(s) : 2 channels
Channel positions : Front: L R
Sampling rate : 48.0 KHz
Bit depth : 16 bits
Compression mode : Lossy
Stream size : 133 MiB (9%)
Default : Yes
Forced : No
Релиз от: ..::ArchangeL::..



Скачать К-9.Собачья.работа.K-9.(Род.Дэниэл).[1989.комедия.боевик.криминал.DVDRip-AVC].[DVO].[Лицензия].torrent без регистрации
Золото ЗОЛОТАЯ РАЗДАЧА! СКАЧАННОЕ НЕ ЗАСЧИТЫВАЕТСЯ! Золото
Дата: Зарегистрирован   [ Тип: внутренний ] Как тут cкачать?
MAGNET ссылка
MAGNET ссылка


Скачать .torrent

15 KB

Статус: проверено DHT
Скачан: торрент - 107 раз, раздача полностью - 63 раз
Размер: 1,45 GB
Оценка:  - (Голосов: 0)
Поблагодарили: 1
Поделиться ссылкой на эту раздачу с друзьями:
В контактеFacebookОдноклассникиTwitterLivejournalМой МирLiveinternet
 

 
Показать сообщения:    


Вы не можете начинать темы
Вы не можете отвечать на сообщения
Вы не можете редактировать свои сообщения
Вы не можете удалять свои сообщения
Вы не можете голосовать в опросах
Вы не можете прикреплять файлы к сообщениям
Вы можете скачивать файлы