Loading...
Error

Скачать Азуми 2: Смерть или любовь / Azumi 2: Death or Love (Сюсуке Канеко) [2005, боевик, BDRip-AVC] [VO] торрент без регистрации

 
Статистика раздачи
Размер:  2,17 GB   |    Скачан:  123 раза
Сидов:  1  [  0 KB/s  ]  
 
Автор Сообщение

Marsianka

[] 

Информация о фильме
Название: Азуми 2: Смерть или любовь
Оригинальное название: Azumi 2: Death or Love
Год выхода: 2005
Жанр: боевик
Режиссер: Сюсуке Канеко
В ролях: Ая Уето, Кеничи Эндо, Чиаки Курияма, Аи Майеда, Юджин Номура, Так Сакагучи, Шун Огури

О фильме:
В одном из уединенных монастырей, путем жесткого отбора и специальных тренировок создавалась каста профессиональных убийц. Десять выпускников сошлись в смертельной схватке. В живых останутся лучшие. Ей предназначена миссия по предотвращению гражданской войны путем уничтожения правителей трех провинций. Но время было упущено и теперь Азуми предстоит сражение с огромной армией последнего правителя.



Страна: Япония, Nippon Herald Films, Tokyo Broadcasting System (TBS), Shogakukan
Продолжительность: 01:52:03
Перевод: Любительский одноголосый
Дата релиза: 06.12.2013

Файл
Кодек: H.264
Качество: BDRip (AVC)
Видео: MPEG-4 AVC, 2325 Кбит/с, 1024x552
Звук: AC3, 6 ch, 448 Кбит/с
Общее
Уникальный идентификатор : 228025606109672414656535421833353416288 (0xAB8C2260C9B63CE2A110AE1FF504CE60)
Полное имя : E:2Azumi.2.Smert.ili.Ljubov.2005.x264.BDRip.(AVC).ExKinoRay.mkv
Формат : Matroska
Размер файла : 2,17 Гбайт
Продолжительность : 1 ч. 52 м.
Общий поток : 2775 Кбит/сек
Название фильма : Azumi.2.Smert.ili.Ljubov.2005.x264.BDRip.(AVC).ExKinoRay
Дата кодирования : UTC 2013-12-06 16:00:01
Программа кодирования : mkvmerge v4.0.0 ('The Stars were mine') сборка от Jun 6 2010 16:18:42
Библиотека кодирования : libebml v1.0.0 + libmatroska v1.0.0

Видео
Идентификатор : 1
Формат : AVC
Формат/Информация : Advanced Video Codec
Профиль формата : High@L4.1
Параметр CABAC формата : Да
Параметр ReFrames формата : 8 кадров
Идентификатор кодека : V_MPEG4/ISO/AVC
Продолжительность : 1 ч. 52 м.
Битрейт : 2325 Кбит/сек
Ширина : 1024 пикс.
Высота : 552 пикс.
Соотношение сторон : 1,855
Частота кадров : 23,976 кадр/сек
Цветовое пространство : YUV
Подвыборка цветности : 4:2:0
Битовая глубина : 8 бит
Тип развёртки : Прогрессивная
Бит/(Пиксели*Кадры) : 0.172
Размер потока : 1,78 Гбайт (82%)
Заголовок : Rip by Enigma-Vladislav71
Библиотека кодирования : x264 core 125 r2208 d9d2288
Настройки программы : cabac=1 / ref=8 / deblock=1:-2:-2 / analyse=0x3:0x133 / me=umh / subme=11 / psy=1 / psy_rd=1.00:0.00 / mixed_ref=1 / me_range=48 / chroma_me=1 / trellis=2 / 8x8dct=1 / cqm=0 / deadzone=21,11 / fast_pskip=0 / chroma_qp_offset=-2 / threads=3 / lookahead_threads=1 / sliced_threads=0 / nr=0 / decimate=0 / interlaced=0 / bluray_compat=0 / constrained_intra=0 / bframes=8 / b_pyramid=2 / b_adapt=2 / b_bias=0 / direct=3 / weightb=1 / open_gop=0 / weightp=2 / keyint=240 / keyint_min=23 / scenecut=40 / intra_refresh=0 / rc=2pass / mbtree=0 / bitrate=2325 / ratetol=1.0 / qcomp=0.60 / qpmin=10 / qpmax=51 / qpstep=4 / cplxblur=20.0 / qblur=0.5 / ip_ratio=1.40 / pb_ratio=1.30 / aq=1:1.00

Аудио
Идентификатор : 2
Формат : AC-3
Формат/Информация : Audio Coding 3
Расширение режима : CM (complete main)
Идентификатор кодека : A_AC3
Продолжительность : 1 ч. 52 м.
Вид битрейта : Постоянный
Битрейт : 448 Кбит/сек
Каналы : 6 каналов
Расположение каналов : Front: L C R, Side: L R, LFE
Частота : 48,0 КГц
Битовая глубина : 16 бит
Метод сжатия : С потерями
Размер потока : 359 Мбайт (16%)
Язык : Russian
Релиз от:

Авторы релиза:



Скачать Азуми.2.Смерть.или.любовь.Azumi.2.Death.or.Love.(Сюсуке.Канеко).[2005.боевик.BDRip-AVC].[VO].torrent без регистрации
Золото ЗОЛОТАЯ РАЗДАЧА! СКАЧАННОЕ НЕ ЗАСЧИТЫВАЕТСЯ! Золото
Дата: Зарегистрирован   [ Тип: внутренний ] Как тут cкачать?
MAGNET ссылка
MAGNET ссылка


Скачать .torrent

11 KB

Статус: проверено DHT
Скачан: торрент - 123 раз, раздача полностью - 6 раз
Размер: 2,17 GB
Оценка:  5 (Голосов: 1)
Поблагодарили: 2
Поделиться ссылкой на эту раздачу с друзьями:
В контактеFacebookОдноклассникиTwitterLivejournalМой МирLiveinternet
 

 
Показать сообщения:    


Вы не можете начинать темы
Вы не можете отвечать на сообщения
Вы не можете редактировать свои сообщения
Вы не можете удалять свои сообщения
Вы не можете голосовать в опросах
Вы не можете прикреплять файлы к сообщениям
Вы можете скачивать файлы