Loading...
Error

Скачать Сердце дракона / Heart of the Dragon (Саммо Хунг, Фрут Чан) [1985, боевик, триллер, драма, комедия, криминал, BDRip-AVC] [Расширенная версия / Unrated] [MVO]+[AVO]+[Оригинал]+[Sub] торрент без регистрации

 
Статистика раздачи
Размер:  2,6 GB   |    Скачан:  103 раза

Полного источника не было: 22 минуты

 
Автор Сообщение

Marsianka

[] 

Информация о фильме
Название: Сердце дракона
Оригинальное название: Heart of the Dragon
Год выхода: 1985
Жанр: боевик, триллер, драма, комедия, криминал
Режиссер: Саммо Хунг, Фрут Чан
В ролях: Джеки Чан, Саммо Хунг, Эмили Чу, Хой Ман, Чинг-Йинг Лам, Ланг Чан, Юэнь Ва, Кар Лок Чин, Кори Юэнь, Мелвин Вонг

О фильме:
Молодой полицейский Тед, поступивший в спецподразделение полиции, получает первое задание. Во время расследования Тед узнаёт, что его брат Денни, непутёвый толстяк и недотёпа, оказался замешанным в торговле краденным. Спасти брата, единственного родного человека, это теперь первое задание Теда...



Страна: Гонконг
Студия: Bo Ho Film Company Ltd., Golden Harvest Company
Продолжительность: 01:38:40
Перевод: Профессиональный (многоголосый закадровый), авторский (одноголосый закадровый)

Файл
Кодек: h.264
Качество: BDRip-AVC
Видео: 3299 Кбит/с, 1024х576, 23.976 кадр/с
1: Русский (AC3, 2 ch, 192 Кбит/с) Профессиональный многоголосый
2: Русский (AC3, 2 ch, 160 Кбит/с) Авторский одноголосый [Юрий Живов]
3: Китайский (AC3, 2 ch, 192 Кбит/с)

Субтитры: Русские [На непереведенные места расширенной версии]

----------------------------------------------------------------------
x264 [info]: frame I:1270 Avg QP:18.68 size: 87678
x264 [info]: frame P:33760 Avg QP:21.36 size: 30620
x264 [info]: frame B:106930 Avg QP:23.17 size: 11641
----------------------------------------------------------------------

Полное имя : Heart.of.Dragon.(UnCut).1985.x264.BDRip.(AVC).0ptimus.mkv
Формат : Matroska
Версия формата : Version 4 / Version 2
Размер файла : 2,60 Гбайт
Продолжительность : 1 ч. 38 м.
Общий поток : 3772 Кбит/сек
Название фильма : Сердце дракона | Heart of the Dragon [Unrated Cut] | 1985 | -=BDRip (AVC)by 0ptimus=-
Дата кодирования : UTC 2013-11-24 11:30:38
Программа кодирования : mkvmerge v6.1.0 ('Old Devil') built on Mar 2 2013 14:32:37
Библиотека кодирования : libebml v1.3.0 + libmatroska v1.4.0

Видео
Идентификатор : 1
Формат : AVC
Формат/Информация : Advanced Video Codec
Профиль формата : High@L4.1
Параметр CABAC формата : Да
Параметр ReFrames формата : 9 кадров
Идентификатор кодека : V_MPEG4/ISO/AVC
Продолжительность : 1 ч. 38 м.
Битрейт : 3229 Кбит/сек
Ширина : 1024 пикселя
Высота : 576 пикселей
Соотношение сторон : 16:9
Частота кадров : 23,976 кадра/сек
Цветовое пространство : YUV
Субдискретизация насыщенности : 4:2:0
Битовая глубина : 8 бит
Тип развёртки : Прогрессивная
Бит/(Пиксели*Кадры) : 0.228
Размер потока : 2,17 Гбайт (84%)
Заголовок : Rip by 0ptimus
Библиотека кодирования : x264 core 133 r2334 a3ac64b
Настройки программы : cabac=1 / ref=9 / deblock=1:-3:-3 / analyse=0x3:0x113 / me=umh / subme=10 / psy=1 / psy_rd=1.00:0.20 / mixed_ref=1 / me_range=32 / chroma_me=1 / trellis=2 / 8x8dct=1 / cqm=0 / deadzone=21,11 / fast_pskip=0 / chroma_qp_offset=-3 / threads=3 / lookahead_threads=1 / sliced_threads=0 / nr=0 / decimate=0 / interlaced=0 / bluray_compat=0 / constrained_intra=0 / bframes=8 / b_pyramid=2 / b_adapt=2 / b_bias=0 / direct=3 / weightb=1 / open_gop=0 / weightp=2 / keyint=240 / keyint_min=23 / scenecut=40 / intra_refresh=0 / rc_lookahead=40 / rc=2pass / mbtree=0 / bitrate=3229 / ratetol=1.0 / qcomp=0.60 / qpmin=0 / qpmax=69 / qpstep=4 / cplxblur=20.0 / qblur=0.5 / vbv_maxrate=50000 / vbv_bufsize=50000 / nal_hrd=none / ip_ratio=1.40 / pb_ratio=1.30 / aq=1:1.00
Язык : English

Аудио #1
Идентификатор : 2
Формат : AC-3
Формат/Информация : Audio Coding 3
Расширение режима : CM (complete main)
Идентификатор кодека : A_AC3
Продолжительность : 1 ч. 38 м.
Вид битрейта : Постоянный
Битрейт : 192 Кбит/сек
Каналы : 2 канала
Расположение каналов : Front: L R
Частота : 48,0 КГц
Битовая глубина : 16 бит
Метод сжатия : С потерями
Размер потока : 136 Мбайт (5%)
Заголовок : Многоголосый закадровый AC3 2.0 @ 192 kbps
Язык : Russian

Аудио #2
Идентификатор : 3
Формат : AC-3
Формат/Информация : Audio Coding 3
Расширение режима : CM (complete main)
Идентификатор кодека : A_AC3
Продолжительность : 1 ч. 38 м.
Вид битрейта : Постоянный
Битрейт : 160 Кбит/сек
Каналы : 2 канала
Расположение каналов : Front: L R
Частота : 48,0 КГц
Битовая глубина : 16 бит
Метод сжатия : С потерями
Размер потока : 113 Мбайт (4%)
Заголовок : Авторский [Юрий Живов] AC3 2.0 @ 160 kbps
Язык : Russian

Аудио #3
Идентификатор : 4
Формат : AC-3
Формат/Информация : Audio Coding 3
Расширение режима : CM (complete main)
Идентификатор кодека : A_AC3
Продолжительность : 1 ч. 38 м.
Вид битрейта : Постоянный
Битрейт : 192 Кбит/сек
Каналы : 2 канала
Расположение каналов : Front: L R
Частота : 48,0 КГц
Битовая глубина : 16 бит
Метод сжатия : С потерями
Размер потока : 136 Мбайт (5%)
Заголовок : AC3 2.0 @ 192 kbps
Язык : Chinese

Текст
Идентификатор : 5
Формат : UTF-8
Идентификатор кодека : S_TEXT/UTF8
Идентификатор кодека/Информация : UTF-8 Plain Text
Заголовок : На места без перевода
Язык : Russian

Меню
00:00:00.000 : :Chapter 01
00:05:00.000 : :Chapter 02
00:10:00.000 : :Chapter 03
00:15:00.000 : :Chapter 04
00:20:00.000 : :Chapter 05
00:25:00.000 : :Chapter 06
00:30:00.000 : :Chapter 07
00:35:00.000 : :Chapter 08
00:40:00.000 : :Chapter 09
00:45:00.000 : :Chapter 10
00:50:00.000 : :Chapter 11
00:55:00.000 : :Chapter 12
01:00:00.000 : :Chapter 13
01:05:00.000 : :Chapter 14
01:10:00.000 : :Chapter 15
01:15:00.000 : :Chapter 16
01:20:00.000 : :Chapter 17
01:25:00.000 : :Chapter 18
01:30:00.000 : :Chapter 19
01:35:00.000 : :Chapter 20
Релиз от:



Скачать Сердце.дракона.Heart.of.the.Dragon.(Саммо.Хунг.Фрут.Чан).[1985.боевик.триллер.драма.комедия.криминал.BDRip-AVC].[Расширенная.версия.Unrated].[MVO]+[AVO]+[Оригинал]+[Sub].torrent без регистрации
Золото ЗОЛОТАЯ РАЗДАЧА! СКАЧАННОЕ НЕ ЗАСЧИТЫВАЕТСЯ! Золото
Дата: Зарегистрирован   [ Тип: внутренний ] Как тут cкачать?
MAGNET ссылка
MAGNET ссылка


Скачать .torrent

27 KB

Статус: проверено DHT
Скачан: торрент - 103 раз, раздача полностью - 2 раз
Размер: 2,6 GB
Оценка:  - (Голосов: 0)
Поблагодарили: 1
Поделиться ссылкой на эту раздачу с друзьями:
В контактеFacebookОдноклассникиTwitterLivejournalМой МирLiveinternet
 

 
Показать сообщения:    


Вы не можете начинать темы
Вы не можете отвечать на сообщения
Вы не можете редактировать свои сообщения
Вы не можете удалять свои сообщения
Вы не можете голосовать в опросах
Вы не можете прикреплять файлы к сообщениям
Вы можете скачивать файлы